Loading...
Error

kuragehime bd-rip 720 (11 + 10)

Ответить на тему
Показать список качающих/скачавших
Размер: 5.34 GB
Зарегистрирован: 8 лет 1 месяц
Скачан: 0 раз

Полного источника не было: 7 лет 5 месяцев

 
     
 
 
Автор Сообщение

Dei4n

Стаж: 10 лет

Сообщений: 3993

Откуда: THIS IS SPARDA

Провайдер: ВТ (IXNN)

Пол: Onna (Ж)

Он-лайн: Нет

Карма: +32.63

Принцесса-медуза / Kuragehime
pic
Тип: [TV]
Жанр: комедия, романтика, драма, дзёсэй
Количество серий: 11 + 10 sp
Время выхода: c 15.10.2010
Режиссер: Омори Такахиро
Студия: Brains Base
Качество видео: bdrip (Yousei-raws)
Размер кадра: 1280*720

Наличие Хардсабов: Нет
Перевод: субтитры от DreamersTeam
Описание: Далеко не каждой суждено стать принцессой. Цукими Курасита - как раз одна из таких. Молодая, 18 летняя девушка, увлекающаяся медузами приехала в Токио с целью стать иллюстратором и, по приглашению своих интернетных подруг, поселяется в неком общежитии, по праву именуемое “монастырем”. Ни одна из обитательниц не претендует на звание красавицы. У каждой из них есть свое любимое увлечение, например: собирание фигурок, шитье одежек для кукол... А о парнях вообще и заикаться не стоит, в этом здании им не место, ведь недаром обитательницы называют себя “монашками”. Жизнь идет своим чередом и Цукими, не смотря на все невзгоды, наслаждается каждым прожитым деньком, пока однажды не знакомится с очаровательной красоткой. Но ведь никогда не знаешь, чего можно ожидать! Пускай новая знакомая осталась на ночь и уснула, зато на утро сразу столько неожиданностей…

Данный сериал - часть известного блока передач Noitamina, транслировавшегося на телеканале Fuji TV после полуночи. Целевой аудиторией программы являются преимущественно девушки и молодые женщины.
медиаинформация
General
Unique ID : 176368615703901204533029026845644607423 (0x84AF5C1D635A88DC9B392C348F4CCFBF)
Complete name : G:\Kuragehime bdrip720\Kuragehime 01 [BDRip 1280x720].mkv
Format : Matroska
File size : 440 MiB
Duration : 22mn 51s
Overall bit rate : 2 693 Kbps
Encoded date : UTC 2011-07-10 17:11:53
Writing application : mkvmerge v2.9.7 ('Tenderness') built on Jul 1 2009 18:43:35
Writing library : libebml v0.7.7 + libmatroska v0.8.1

Video
ID : 1
Format : AVC
Format/Info : Advanced Video Codec
Format profile : High@L4.1
Format settings, CABAC : Yes
Format settings, ReFrames : 9 frames
Codec ID : V_MPEG4/ISO/AVC
Duration : 22mn 51s
Bit rate : 2 470 Kbps
Width : 1 280 pixels
Height : 720 pixels
Display aspect ratio : 16:9
Frame rate : 23.976 fps
Color space : YUV
Chroma subsampling : 4:2:0
Bit depth : 8 bits
Scan type : Progressive
Bits/(Pixel*Frame) : 0.112
Stream size : 390 MiB (89%)
Writing library : x264 core 114 r1924 08d04a4
Encoding settings : cabac=1 / ref=9 / deblock=1:-2:-2 / analyse=0x3:0x133 / me=umh / subme=9 / psy=1 / psy_rd=0.90:0.00 / mixed_ref=1 / me_range=24 / chroma_me=1 / trellis=2 / 8x8dct=1 / cqm=0 / deadzone=21,11 / fast_pskip=1 / chroma_qp_offset=-2 / threads=12 / sliced_threads=0 / nr=0 / decimate=0 / interlaced=0 / constrained_intra=0 / bframes=8 / b_pyramid=2 / b_adapt=2 / b_bias=0 / direct=3 / weightb=1 / open_gop=0 / weightp=2 / keyint=250 / keyint_min=23 / scenecut=40 / intra_refresh=0 / rc=2pass / mbtree=0 / bitrate=2470 / ratetol=1.0 / qcomp=0.70 / qpmin=8 / qpmax=28 / qpstep=4 / cplxblur=20.0 / qblur=0.5 / ip_ratio=1.40 / pb_ratio=1.30 / aq=1:0.90

Audio
ID : 2
Format : Vorbis
Format settings, Floor : 1
Codec ID : A_VORBIS
Duration : 22mn 51s
Bit rate : 256 Kbps
Channel(s) : 2 channels
Sampling rate : 48.0 KHz
Compression mode : Lossy
Stream size : 41.8 MiB (10%)
Writing library : libVorbis (Everywhere) (20100325 (Everywhere))
Language : Japanese
Скринлист
pic
скриншоты
pic pic pic
pic
pic pic
pic
pic pic

Внимание! Вы не авторизировались - скачанный по ссылкам ниже торрент не будет учитываться в вашем личном профиле.

Kuragehime bdrip720.torrent
Трекер: Зарегистрирован

Торрент


Magnet

Зарегистрирован: 2011-07-26 21:35
Скачан: 0 раз
Размер: 5.34 GB
Оценка: - (Голосов: 0)
Поблагодарили: 0
 
Список файлов
# \ Папка Kuragehime bdrip720 Размер
1 Kuragehime 04 [BDRip 1280x720].mkv 502 MB
2 Kuragehime 03 [BDRip 1280x720].mkv 470 MB
3 Kuragehime 11 [BDRip 1280x720].mkv 460 MB
4 Kuragehime 05 [BDRip 1280x720].mkv 457 MB
5 Kuragehime 06 [BDRip 1280x720].mkv 452 MB
6 Kuragehime 09 [BDRip 1280x720].mkv 452 MB
7 Kuragehime 02 [BDRip 1280x720].mkv 450 MB
8 Kuragehime 01 [BDRip 1280x720].mkv 440 MB
9 Kuragehime 10 [BDRip 1280x720].mkv 437 MB
10 Kuragehime 07 [BDRip 1280x720].mkv 429 MB
11 Kuragehime 08 [BDRip 1280x720].mkv 419 MB
12 Specials / Kuragehime (Eiyuu Retsuden 4) [BDRip 1280x720].mkv 128 MB
13 Specials / Kuragehime (Eiyuu Retsuden 1) [BDRip 1280x720].mkv 115 MB
14 Specials / Kuragehime (Eiyuu Retsuden 2) [BDRip 1280x720].mkv 99 MB
15 Specials / Kuragehime (Eiyuu Retsuden 3) [BDRip 1280x720].mkv 88 MB
16 Specials / Kuragehime (Amas expedition team 2) [BDRip 1280x720].mkv 14 MB
17 Specials / Kuragehime (Amas expedition team 6) [BDRip 1280x720].mkv 13 MB
18 Specials / Kuragehime (Amas expedition team 4) [BDRip 1280x720].mkv 13 MB
19 Specials / Kuragehime (Amas expedition team 3) [BDRip 1280x720].mkv 11 MB
20 Specials / Kuragehime (Amas expedition team 5) [BDRip 1280x720].mkv 11 MB
21 Specials / Kuragehime (Amas expedition team 1) [BDRip 1280x720].mkv 10 MB
22 Kuragehime 03 [BDRip 1280x720].ass 111 KB
23 Kuragehime 01 [BDRip 1280x720].ass 92 KB
24 Kuragehime 08 [BDRip 1280x720].ass 67 KB
25 Kuragehime 04 [BDRip 1280x720].ass 67 KB
26 Kuragehime 05 [BDRip 1280x720].ass 65 KB
27 Kuragehime 02 [BDRip 1280x720].ass 63 KB
28 Kuragehime 11 [BDRip 1280x720].ass 62 KB
29 Kuragehime 10 [BDRip 1280x720].ass 60 KB
30 Kuragehime 09 [BDRip 1280x720].ass 60 KB
31 Kuragehime 06 [BDRip 1280x720].ass 59 KB
32 Kuragehime 07 [BDRip 1280x720].ass 57 KB

_________________
Profile PM
Показать сообщения:    
Ответить на тему

Текущее время: 19-Сен 07:13

Часовой пояс: GMT + 3



Вы не можете начинать темы
Вы не можете отвечать на сообщения
Вы не можете редактировать свои сообщения
Вы не можете удалять свои сообщения
Вы не можете голосовать в опросах
Вы не можете прикреплять файлы к сообщениям
Вы можете скачивать файлы
[  Execution time: 0.075 sec  |  MySQL: 0.073 sec (97%) in 21 queries  |  Mem: 410.69 KB / 1.46 MB / 1.02 MB  |  Load: 1.1 0.7 0.7  ]