Loading...
Error

Shounen Maid Curo-kun [Comic Movie] | Мальчик-горничная Куро [2009, драма, яой, сетакон] [DVDrip, 396p] [JPN, субтитры: нет] [CEN] (1)

Ответить на тему
Показать список качающих/скачавших
Размер: 185 MB
Зарегистрирован: 1 год 5 месяцев
Скачан: 4 раза

Сидов:

Имя UL
Ratio
Передано Скорость Провайдер
up down up down
batyrmastyr 1.2 214 MB - - - Дом.ru
показаны данные только за текущую сессию
 
     
 
 
Автор Сообщение

Nami

Стаж: 9 лет

Сообщений: 425

Откуда: Карповка

Провайдер: ВТ (IXNN)

Пол: Onna (Ж)

Он-лайн: Нет

Карма: 0.00

Shounen Maid Curo-kun [Comic Movie]
Мальчик-горничная Куро
アニメ 少年メイドクーロ君 ~天使の歌~


Тип: OVA

pic
Жанры: драма, яой, сетакон
Длительность: 1 эп. по 30 мин.
Время выхода: 22.10.2009
Страна: Япония

Режиссёр: Ятабэ Кацуёси
Автор оригинала: Хиираги Масаки

Описание: Расплачиваясь за долги отца, Куро был продан в сексуальное рабство…

В энциклопедиях:   AniDB  |  World Art

Личная оценка: 7 из 10 — на любителя

  • Качество видео:
    • DVDrip, есть цензура
    Видео:
    • AVC, 704 * 396, 557 кбит/с
    Аудио:
    • Японская | AAC, 2 канала, 265 кбит/с - оригинальная, в контейнере


Скриншоты:
pic pic pic pic pic pic pic
Параметры видео | аудио:
General
Complete name : /Volumes/t/ongoing/Shounen Maid Curo-kun [Comic Movie ] [RAW].mp4
Format : MPEG-4
Format profile : Base Media
Codec ID : isom
File size : 185 MiB
Duration : 31mn 13s
Overall bit rate mode : Variable
Overall bit rate : 826 Kbps
Encoded date : UTC 2009-10-26 12:13:51
Tagged date : UTC 2009-10-26 12:13:51

Video
ID : 1
Format : AVC
Format/Info : Advanced Video Codec
Format profile : Main@L3.0
Format settings, CABAC : Yes
Format settings, ReFrames : 2 frames
Codec ID : avc1
Codec ID/Info : Advanced Video Coding
Duration : 31mn 13s
Duration_FirstFrame : -17ms
Bit rate : 557 Kbps
Maximum bit rate : 2 969 Kbps
Width : 704 pixels
Height : 396 pixels
Display aspect ratio : 16:9
Frame rate mode : Variable
Frame rate : 29.970 fps
Minimum frame rate : 29.970 fps
Maximum frame rate : 39.960 fps
Color space : YUV
Chroma subsampling : 4:2:0
Bit depth : 8 bits
Scan type : Progressive
Bits/(Pixel*Frame) : 0.067
Stream size : 124 MiB (67%)
Writing library : x264 core 67 r1163 3f56e27
Encoding settings : cabac=1 / ref=1 / deblock=1:0:0 / analyse=0x1:0x111 / me=hex / subme=6 / psy_rd=1.0:0.0 / mixed_ref=0 / me_range=16 / chroma_me=1 / trellis=0 / 8x8dct=0 / cqm=0 / deadzone=21,11 / chroma_qp_offset=-2 / threads=1 / nr=0 / decimate=1 / mbaff=0 / bframes=4 / b_pyramid=0 / b_adapt=1 / b_bias=0 / direct=3 / wpredb=0 / keyint=250 / keyint_min=25 / scenecut=40 / rc=crf / crf=22.0 / qcomp=0.60 / qpmin=10 / qpmax=51 / qpstep=4 / ip_ratio=1.40 / pb_ratio=1.30 / aq=1:1.00
Encoded date : UTC 2009-10-26 11:49:12
Tagged date : UTC 2009-10-26 12:14:03

Audio
ID : 2
Format : AAC
Format/Info : Advanced Audio Codec
Format profile : LC
Codec ID : 40
Duration : 31mn 13s
Duration_LastFrame : -16ms
Bit rate mode : Variable
Bit rate : 265 Kbps
Maximum bit rate : 352 Kbps
Channel(s) : 2 channels
Channel positions : Front: L R
Sampling rate : 48.0 KHz
Compression mode : Lossy
Stream size : 59.3 MiB (32%)
Encoded date : UTC 2009-10-27 12:12:45
Tagged date : UTC 2009-10-26 12:14:03

Внимание! Вы не авторизировались - скачанный по ссылкам ниже торрент не будет учитываться в вашем личном профиле.

Shounen Maid Curo-kun Comic Movie [2009, DVDrip].torrent
Трекер: Зарегистрирован

Торрент


Magnet

Зарегистрирован: 2016-05-02 16:45
Скачан: 4 раз
Размер: 185 MB
Оценка: 4.6 (Голосов: 8)
Поблагодарили: 9   (список)
Поделиться:
 
Список файлов
# \ Папка Shounen Maid Curo-kun Comic Movie [2009, DVDrip] Размер
1 Shounen Maid Curo-kun [Comic Movie ] [RAW].mp4 185 MB

_________________
pic
[YAOI-TEAM] | [One Piece Fan-TeaM] | my anime list
Profile PM

Grungygirl

Стаж: 7 лет 8 месяцев

Сообщений: 3

Провайдер: Неизвестен

Пол: Onna (Ж)

Он-лайн: Нет

Карма: 0.00

post 04-Окт-2010 09:03 (спустя 1 день 19 часов)
Раздайте, плиз! Останусь на раздаче.
Profile PM

>ReNao<

Стаж: 8 лет 3 месяца

Сообщений: 1763

Откуда: Нижний Новгород

Провайдер: МТС Домашний (IXNN)

Пол: Otoko (M)

Он-лайн: Нет

Карма: 0.00

post 04-Окт-2010 18:48 (спустя 9 часов)
Хочу рксские сабы! aaa Sad
Profile PM

>ReNao<

Стаж: 8 лет 3 месяца

Сообщений: 1763

Откуда: Нижний Новгород

Провайдер: МТС Домашний (IXNN)

Пол: Otoko (M)

Он-лайн: Нет

Карма: 0.00

post 05-Окт-2010 11:57 (спустя 17 часов)
Если честно, то я бы поставил 4 за породию на сюжет, 6 за рисовку, 1 за анимацию и за озвучку 9+
Итого - 5+ за этот Яойчик. 7 твердо можно поставить, если еще кавайность учесть =)
Boku no Pico куда гораздо интереснее и веселее. И там даже есть анимация с сюжетом (хотя сюжет, все же не на много дальше ушел).
Profile PM

Дух Охоты

Стаж: 8 лет 9 месяцев

Сообщений: 125

Провайдер: ВТ (IXNN)

Пол: Не определилось

Он-лайн: Нет

Карма: 0.00

post 08-Окт-2010 11:57 (спустя 2 дня 23 часа)
Читала эту мангу) Ну как читала - картинки смотрела, ибо с японского ни фига не понятно)))) Этот блондинчик с ним творит все что хочет!
Profile PM

Gadik

Стаж: 9 лет 4 месяца

Сообщений: 122

Откуда: Автозавод

Провайдер: ВТ (IXNN)

Пол: Onna (Ж)

Он-лайн: Нет

Карма: 0.00

post 05-Дек-2010 02:22 (спустя 1 месяц 27 дней)
сабы
Прикреплённый файл
Profile PM
Показать сообщения:    
Ответить на тему

Текущее время: 18-Окт 06:34

Часовой пояс: GMT + 3



Вы не можете начинать темы
Вы не можете отвечать на сообщения
Вы не можете редактировать свои сообщения
Вы не можете удалять свои сообщения
Вы не можете голосовать в опросах
Вы не можете прикреплять файлы к сообщениям
Вы можете скачивать файлы
[  Execution time: 0.070 sec  |  MySQL: 0.026 sec (37%) in 21 queries  |  Mem: 159.45 KB / 1.06 MB / 755.68 KB  |  Load: 1.5 1.7 1.4  ]