Loading...
Error

Kuzu no Honkai | Грязные желания | クズの本懐 [2017, романтика, эччи] [TVrip, 720p] [JPN, субтитры: eng+rus] (9 из 12)

Ответить на тему
Показать список качающих/скачавших
Размер: 2.88 GB
Зарегистрирован: 1 год 10 месяцев
Скачан: 0 раз

Сидов:

Имя UL
Ratio
Передано Скорость Провайдер
up down up down
batyrmastyr ®  0 - - - - Не определен
показаны данные только за текущую сессию
 
     
 
 
Автор Сообщение

batyrmastyr

Стаж: 11 лет

Сообщений: 6495

Откуда: Sekai

Провайдер: Не определен

Пол: Не определилось

Он-лайн: Нет

Карма: +33.44

Kuzu no Honkai
Грязные желания
クズの本懐


Тип: ТВ сериал

pic
Жанры: романтика, эччи
Длительность: 12 эп. по 25 мин.
Время выхода: c 13.01.2017 по 31.03.2017
Страна: Япония

Режиссёр: Андо Масаоми
Сценарист: Уэдзу Макото
Снято по: манге Kuzu no Honkai
Автор оригинала: Ёкояри Мэнго
Студия: Lerche

Описание:
Все считают, что семнадцатилетние Авая Муги и Ясураока Ханаби идеальная пара: они оба довольно красивы, да и вместе хорошо смотрятся. Но у них есть секрет. И он, и она безответно влюблены, а встречаются только затем, чтобы забыть про угнетающее их одиночество. Муги любит молодую учительницу Минагаву Аканэ, которая когда-то давала ему частные уроки, а сердце Ханаби принадлежит другому учителю — давнему другу её семьи. Смогут ли наши герои пройти по острию ножа, даже когда выяснят, что с их возлюбленными всё не так-то просто? © Chris Foster


В энциклопедиях:   AniDB  |  ANN  |  Википедия  |  World Art

  • Источник релиза:
    • [Commie]
    Качество видео:
    • TVrip
    Видео:
    • AVC 10bit, 1280 * 720, 1 868 кбит/с
    Аудио:
    • Японская | AC-3, 2 канала, 224 кбит/с - оригинальная, в контейнере
    Субтитры:


Скриншоты:
pic pic pic pic pic pic pic pic pic
Параметры видео | аудио:
General
Unique ID : 245308691253349597042470014309333218033 (0xB88CBC43D9E7430AA451193851B032F1)
Complete name : /Volumes/t/ongoing/Kuzu no Honkai [2017, TVrip]/[Commie] Kuzu no Honkai - 01 [265B0769].mkv
Format : Matroska
Format version : Version 4 / Version 2
File size : 350 MiB
Duration : 22mn 55s
Overall bit rate : 2 134 Kbps
Encoded date : UTC 2017-01-12 07:39:03
Writing application : mkvmerge v9.7.1 ('Pandemonium') 64bit
Writing library : libebml v1.3.4 + libmatroska v1.4.5
Attachements : appleberry_with_cyrillic.ttf / ArialRoundedMTStd-ExtraBold.otf / ComicBookFun-Regular.ttf / DJB Chalk It Up.ttf / FONTIN_SANS_0.OTF / FONTIN_SANS_BI_0.OTF / FRABK.TTF / framd_0.ttf / GOUDOSI.TTF / IwaMinPro-Lt-Madoka_0.ttf
DURATION : 00:22:49.200000000
NUMBER_OF_FRAMES : 1292
NUMBER_OF_BYTES : 145407
_STATISTICS_WRITING_APP : mkvmerge v9.7.1 ('Pandemonium') 64bit
_STATISTICS_WRITING_DATE_UTC : 2017-01-12 07:39:03
_STATISTICS_TAGS : BPS DURATION NUMBER_OF_FRAMES NUMBER_OF_BYTES

Video
ID : 1
Format : AVC
Format/Info : Advanced Video Codec
Format profile : High 10@L5.0
Format settings, CABAC : Yes
Format settings, ReFrames : 16 frames
Codec ID : V_MPEG4/ISO/AVC
Duration : 22mn 55s
Bit rate : 1 868 Kbps
Width : 1 280 pixels
Height : 720 pixels
Display aspect ratio : 16:9
Frame rate mode : Constant
Frame rate : 23.976 fps
Color space : YUV
Chroma subsampling : 4:2:0
Bit depth : 10 bits
Scan type : Progressive
Bits/(Pixel*Frame) : 0.085
Stream size : 306 MiB (88%)
Writing library : x264 core 148 r2744+55 950084e t_mod_Custom [10-bit@all X86_64]
Encoding settings : cabac=1 / ref=16 / deblock=1:0:0 / analyse=0x3:0x133 / me=umh / subme=10 / psy=1 / fade_compensate=0.70 / psy_rd=0.60:0.15 / mixed_ref=1 / me_range=24 / chroma_me=1 / trellis=2 / 8x8dct=1 / cqm=0 / deadzone=21,11 / fast_pskip=1 / chroma_qp_offset=-3 / threads=6 / lookahead_threads=1 / sliced_threads=0 / nr=0 / decimate=1 / interlaced=0 / bluray_compat=0 / constrained_intra=0 / fgo=0 / bframes=10 / b_pyramid=2 / b_adapt=2 / b_bias=0 / direct=3 / weightb=1 / open_gop=0 / weightp=2 / keyint=250 / keyint_min=23 / scenecut=40 / intra_refresh=0 / rc_lookahead=60 / rc=crf / mbtree=1 / crf=18.0000 / qcomp=0.70 / qpmin=0:0:0 / qpmax=81:81:81 / qpstep=4 / ip_ratio=1.40 / aq=3:0.80 / aq-sensitivity=10.00 / aq-factor=1.00:1.00:1.00 / aq2=0 / aq3=0
Language : English
Default : Yes
Forced : No
DURATION : 00:22:55.082000000
NUMBER_OF_FRAMES : 32969
NUMBER_OF_BYTES : 325819961
_STATISTICS_WRITING_APP : mkvmerge v9.7.1 ('Pandemonium') 64bit
_STATISTICS_WRITING_DATE_UTC : 2017-01-12 07:39:03
_STATISTICS_TAGS : BPS DURATION NUMBER_OF_FRAMES NUMBER_OF_BYTES

Audio
ID : 2
Format : E-AC-3
Format/Info : Audio Coding 3
Format settings, Endianness : Big
Codec ID : A_EAC3
Duration : 22mn 55s
Bit rate mode : Constant
Bit rate : 224 Kbps
Channel(s) : 2 channels
Channel positions : Front: L R
Sampling rate : 48.0 KHz
Compression mode : Lossy
Stream size : 36.7 MiB (10%)
Language : Japanese
Default : Yes
Forced : No

Text
ID : 3
Format : ASS
Codec ID : S_TEXT/ASS
Codec ID/Info : Advanced Sub Station Alpha
Compression mode : Lossless
Language : English
Default : Yes
Forced : No

Menu
00:00:00.033 : en:Intro
00:03:21.970 : en:OP
00:04:52.020 : en:Part A
00:18:29.080 : en:Part B
00:21:25.220 : en:ED

Внимание! Вы не авторизировались - скачанный по ссылкам ниже торрент не будет учитываться в вашем личном профиле.

Kuzu no Honkai [2017, TVrip].torrent
Трекер: Зарегистрирован

Торрент


Magnet

Зарегистрирован: 2017-03-12 22:06
Скачан: 0 раз
Размер: 2.88 GB
Оценка: - (Голосов: 0)
Поблагодарили: 0
 
Список файлов
# \ Папка Размер
Profile PM

batyrmastyr

Стаж: 11 лет

Сообщений: 6495

Откуда: Sekai

Провайдер: Не определен

Пол: Не определилось

Он-лайн: Нет

Карма: +33.44

post 12-Мар-2017 22:06 (спустя 5 дней)
9-я серия с субтитрами к шестой.

_________________
pic
я несу глупость во имя бака-тим
Gundam Team
Yuri TEAM
Термины
Profile PM
Показать сообщения:    
Ответить на тему

Текущее время: 21-Янв 03:54

Часовой пояс: GMT + 3



Вы не можете начинать темы
Вы не можете отвечать на сообщения
Вы не можете редактировать свои сообщения
Вы не можете удалять свои сообщения
Вы не можете голосовать в опросах
Вы не можете прикреплять файлы к сообщениям
Вы можете скачивать файлы
[  Execution time: 0.027 sec  |  MySQL: 0.029 sec (108%) in 21 queries  |  Mem: 410.55 KB / 1.63 MB / 1.19 MB  |  Load: 0.8 1.1 1  ]