Loading...
Error

[Comic Movie] Последний март / Suteki na Shota Days 2 ~ Saigo no Sangatsu ~(1/1)

Ответить на тему
Показать список качающих/скачавших
Размер: 136 MB
Зарегистрирован: 7 лет 3 месяца
Скачан: 83 раза

Сидов:

Имя UL
Ratio
Передано Скорость Провайдер
up down up down
Cuprum 0 - - - - Неизвестен
показаны данные только за текущую сессию
 
     
 
 
Автор Сообщение

Nami

Стаж: 10 лет

Сообщений: 425

Откуда: Карповка

Провайдер: ВТ (IXNN)

Пол: Onna (Ж)

Он-лайн: Нет

Карма: 0.00

Последний март / Suteki na Shota Days 2 ~ Saigo no Sangatsu ~

pic
Жанр: яой, школа, драма
Количество серий: 1 (32 мин.)
Время выхода: 19.12.2009
Автор оригинала: Тсукумо Го

Качество видео: DVDRip
Размер кадра: 512*288
Битрейт: 602 кб/с
Наличие Хардсабов: Нет
Перевод: Субтитры

Описание: Нии - апатичный ученик средней школы, который не задумывается о своем будущем и не ставит перед собой никаких целей. Эта беспросветная серая жизнь его вполне устраивала, пока однажды, он не понял, что его влечет к своему однокласснику..
Личная оценка: 8 - мне понравилось
MediaInfo
General
Format : MPEG-4
Format profile : Base Media
Codec ID : isom
File size : 136 MiB
Duration : 31mn 30s
Overall bit rate : 602 Kbps
Encoded date : UTC 2010-04-10 05:37:20
Tagged date : UTC 2010-04-10 05:37:20

Video
ID : 1
Format : AVC
Format/Info : Advanced Video Codec
Format profile : High@L5.1
Format settings, CABAC : Yes
Format settings, ReFrames : 2 frames
Codec ID : avc1
Codec ID/Info : Advanced Video Coding
Duration : 31mn 30s
Bit rate mode : Variable
Bit rate : 500 Kbps
Maximum bit rate : 2 082 Kbps
Width : 512 pixels
Height : 288 pixels
Display aspect ratio : 16/9
Frame rate mode : Constant
Frame rate : 29.970 fps
Resolution : 24 bits
Colorimetry : 4:2:0
Scan type : Progressive
Bits/(Pixel*Frame) : 0.113
Stream size : 113 MiB (83%)
Writing library : x264 core 65 r0+1112 09ce335
Encoding settings : cabac=1 / ref=2 / deblock=1:0:0 / analyse=0x3:0x133 / me=umh / subme=9 / psy_rd=1.0:0.0 / mixed_ref=0 / me_range=16 / chroma_me=1 / trellis=1 / 8x8dct=1 / cqm=0 / deadzone=21,11 / chroma_qp_offset=-2 / threads=1 / nr=0 / decimate=1 / mbaff=0 / bframes=2 / b_pyramid=0 / b_adapt=1 / b_bias=0 / direct=3 / wpredb=1 / keyint=250 / keyint_min=25 / scenecut=40 / rc=2pass / bitrate=500 / ratetol=1.0 / qcomp=0.60 / qpmin=10 / qpmax=51 / qpstep=4 / cplxblur=20.0 / qblur=0.5 / ip_ratio=1.40 / pb_ratio=1.30 / aq=1:1.00
Encoded date : UTC 2010-04-10 05:37:20
Tagged date : UTC 2010-04-10 05:37:33

Audio
ID : 2
Format : AAC
Format/Info : Advanced Audio Codec
Format version : Version 4
Format profile : LC
Format settings, SBR : No
Codec ID : 40
Duration : 31mn 30s
Bit rate mode : Variable
Bit rate : 98.3 Kbps
Maximum bit rate : 172 Kbps
Channel(s) : 2 channels
Channel positions : L R
Sampling rate : 48.0 KHz
Resolution : 16 bits
Stream size : 22.2 MiB (16%)
Encoded date : UTC 2010-04-10 05:37:33
Tagged date : UTC 2010-04-10 05:37:33
Скриншоты
pic

pic

pic

pic

pic

Внимание! Вы не авторизировались - скачанный по ссылкам ниже торрент не будет учитываться в вашем личном профиле.

Suteki no shota days 2.torrent
Трекер: Зарегистрирован

Торрент

Зарегистрирован: 2010-09-05 23:59
Скачан: 83 раз
Размер: 136 MB
Оценка: 4.6 (Голосов: 8)
Поблагодарили: 13   (список)
Поделиться:
 
Список файлов
# \ Папка Suteki no shota days 2 Размер
1 fonts / Bolero script.ttf 108 KB
2 fonts / MyriadPro-Regular.otf 93 KB
3 Suteki_na_Shota_Days_2_Saigo_no_Sangatsu.ass 30 KB
4 Suteki_na_Shota_Days_2_Saigo_no_Sangatsu.mp4 136 MB

_________________
pic
[YAOI-TEAM] | [One Piece Fan-TeaM] | my anime list
Profile PM
Показать сообщения:    
Ответить на тему

Текущее время: 17-Дек 12:48

Часовой пояс: GMT + 3



Вы не можете начинать темы
Вы не можете отвечать на сообщения
Вы не можете редактировать свои сообщения
Вы не можете удалять свои сообщения
Вы не можете голосовать в опросах
Вы не можете прикреплять файлы к сообщениям
Вы можете скачивать файлы
[  Execution time: 0.558 sec  |  MySQL: 0.110 sec (20%) in 20 queries  |  Mem: 159.88 KB / 1.02 MB / 692.91 KB  |  Load: 3 2.7 2.7  ]