Loading...
Error

В поисках приключений (Япония) [2005][DVDRip]

Ответить на тему
Показать список качающих/скачавших
Размер: 2.32 GB
Зарегистрирован: 5 лет 11 месяцев
Скачан: 5 раз

Полного источника не было: 19 дней

 
     
 
 
Автор Сообщение

Loki777

Стаж: 11 лет

Сообщений: 6

Откуда: NiNo J - 128

Провайдер: ВТ (IXNN)

Пол: Otoko (M)

Он-лайн: Нет

Карма: 0.00

В поисках приключений (Япония) [2005][DVDRip]

pic
Жанр: Документальный фильм
Количество серий: 4 серии по 42 минуты
Время выхода: 2005
Режиссер: Михаил Кузовенков
Страна: Россия
В ролях: Михаил Кожухов

Описание: Японцы делят все человечество на две неравные части. Одна из них, - лучшая, понятное дело, - это сами японцы. Всех остальных здесь называют гайдзины - чужаки. Они, правда, тоже необходимы Японии, но только для того, чтобы покупать их шарпы, панасоники и прочие мицубиси, без которых мир сегодня был бы куда менее удобным.

Чувство растерянности, которое испытывает здесь приезжий, объясняется еще и тем, что японцы не говорит на языках гайдзинов. Так что если и Вы не в ладах с иероглифами, то самое невинное Ваше желание - доехать, поесть или купить, - превращается здесь в приключение, финал которого неизвестен... Ну что ж, приключения, - это как раз по нашей части. На этом диске Вы увидите мои попытки овладеть искусством самураев и их подружек - кэндо и икебаной, я поделюсь с Вами рецептом приготовления опасного блюда - рыбы фугу, я объясню, чем отличаются суши, которые в Японии, от суши, которые у нас. Не останется без внимания и чайная церемония, - как же без нее! Приятного Вам просмотра!
Личная оценка: 10 - всем советую

  • Качество видео:
    • DVDrip
    Видео:
    • AVC, 1024 * 792, 1 774 кбит/с
    Аудио:
    • Русская | AC3, 2 канала, 192 кбит/с - оригинальная, в контейнере
Скриншоты:
pic pic pic pic pic pic pic pic pic pic pic
Параметры видео | аудио:
General
Unique ID : 209091203499647884121050564841567940046 (0x9D4D80411050802C8398D34C598BEDCE)
Complete name : /Volumes/Torrents/_документальные/В поисках приключений. Япония/В поисках приключений. Япония. Часть 1.mkv
Format : Matroska
File size : 593 MiB
Duration : 42mn 19s
Overall bit rate : 1 959 Kbps
Encoded date : UTC 2012-04-21 06:41:05
Writing application : mkvmerge v5.0.1 ('Es ist Sommer') built on Nov 6 2011 16:23:40
Writing library : libebml v1.2.2 + libmatroska v1.3.0

Video
ID : 1
Format : AVC
Format/Info : Advanced Video Codec
Format profile : High@L3.1
Format settings, CABAC : Yes
Format settings, ReFrames : 4 frames
Format settings, GOP : M=1, N=4
Codec ID : V_MPEG4/ISO/AVC
Duration : 42mn 19s
Bit rate : 1 774 Kbps
Width : 1 024 pixels
Height : 792 pixels
Display aspect ratio : 1.293
Frame rate : 25.000 fps
Color space : YUV
Chroma subsampling : 4:2:0
Bit depth : 8 bits
Scan type : Progressive
Bits/(Pixel*Frame) : 0.087
Stream size : 523 MiB (88%)
Writing library : x264 core 119 r2106 07efeb4
Encoding settings : cabac=1 / ref=3 / deblock=1:0:0 / analyse=0x3:0x113 / me=hex / subme=7 / psy=1 / psy_rd=1.00:0.00 / mixed_ref=1 / me_range=16 / chroma_me=1 / trellis=1 / 8x8dct=1 / cqm=0 / deadzone=21,11 / fast_pskip=1 / chroma_qp_offset=-2 / threads=3 / sliced_threads=0 / nr=0 / decimate=1 / interlaced=0 / bluray_compat=0 / constrained_intra=0 / bframes=3 / b_pyramid=2 / b_adapt=1 / b_bias=0 / direct=1 / weightb=1 / open_gop=0 / weightp=2 / keyint=250 / keyint_min=25 / scenecut=40 / intra_refresh=0 / rc_lookahead=40 / rc=abr / mbtree=1 / bitrate=1774 / ratetol=1.0 / qcomp=0.60 / qpmin=0 / qpmax=69 / qpstep=4 / ip_ratio=1.40 / aq=1:1.00

Audio
ID : 2
Format : AC-3
Format/Info : Audio Coding 3
Mode extension : CM (complete main)
Codec ID : A_AC3
Duration : 42mn 19s
Bit rate mode : Constant
Bit rate : 192 Kbps
Channel(s) : 2 channels
Channel positions : Front: L R
Sampling rate : 48.0 KHz
Bit depth : 16 bits
Compression mode : Lossy
Stream size : 58.1 MiB (10%)

Внимание! Вы не авторизировались - скачанный по ссылкам ниже торрент не будет учитываться в вашем личном профиле.

В поисках приключений. Япония.torrent
Трекер: Зарегистрирован

Торрент


Magnet

Зарегистрирован: 2013-07-14 18:01
Скачан: 5 раз
Размер: 2.32 GB
Оценка: 4.6 (Голосов: 5)
Поблагодарили: 9   (список)
 
Список файлов
# \ Папка В поисках приключений. Япония Размер
1 В поисках приключений. Япония. Часть 1.mkv 593 MB
2 В поисках приключений. Япония. Часть 2.mkv 593 MB
3 В поисках приключений. Япония. Часть 3.mkv 596 MB
4 В поисках приключений. Япония. Часть 4.mkv 592 MB

_________________
(^_^) v (^_^) v (^_^)


Последний раз редактировалось: Loki777 (2009-09-03 08:41), всего редактировалось 3 раз(а)
Profile PM

post 25-Авг-2009 22:33 (спустя 10 дней)
Топик был перенесен из форума Полнометражные в форум Материалы о Японии

DarkLion
 

batyrmastyr

Стаж: 11 лет

Сообщений: 6505

Откуда: Sekai

Провайдер: Не определен

Пол: Otoko (M)

Он-лайн: Нет

Карма: +33.73

post 02-Сен-2009 22:31 (спустя 18 дней)
Loki777
Разве это DVDrip? На вид, да и по логике - рип телепоказа.
Вместо "Битрейта" неизвестно чего, лучше записать строчки Video и Audio со скринлиста.
Т.е.

Код:

[b]Количество серий:[/b] 4 серии по 42 минуты
...
[b]Видео:[/b] DivX 5,  1100 кбит/с, 25 кадров/с
[b]Аудио:[/b] MP3, 128 кбит/с, 48 кГц, 2 канала.
Но это мелочи.
ps Спасибо, как-нибудь позже обязательно скачаю.

_________________
pic
я несу глупость во имя бака-тим
Gundam Team
Yuri TEAM
Термины
Profile PM

Loki777

Стаж: 11 лет

Сообщений: 6

Откуда: NiNo J - 128

Провайдер: ВТ (IXNN)

Пол: Otoko (M)

Он-лайн: Нет

Карма: 0.00

post 03-Сен-2009 11:34 (спустя 13 часов)
batyrmastyr
А фиг знает, может и TVRip, но логотипа канала на картинке нет)
Profile PM

arfist

Стаж: 10 лет

Сообщений: 4899

Провайдер: Дом.ru

Пол: Не определилось

Он-лайн: Нет

Карма: +1.77

post 03-Сен-2009 12:37 (спустя 1 час 3 минуты)
Loki777
картинка говорит сама за себя

зы: было бы качество скринов, как на скринлисте, скачал бы...

_________________
( ╯°□°)╯
pic
Profile PM

Loki777

Стаж: 11 лет

Сообщений: 6

Откуда: NiNo J - 128

Провайдер: ВТ (IXNN)

Пол: Otoko (M)

Он-лайн: Нет

Карма: 0.00

post 03-Сен-2009 13:49 (спустя 1 час 12 минут)
arfist
я и сам как-то не ожидал такой разницы) качество, конечно, оставляет желать лучшего, но, лично я забыл про его недостатки, передача довольно интересная)) я бы все-таки посоветовал скачать, впрочем ИМХО)
Profile PM

Taniushi4ka

Стаж: 10 лет

Сообщений: 23

Откуда: Дзержинск

Провайдер: Билайн (IXNN)

Пол: Onna (Ж)

Он-лайн: Нет

Карма: 0.00

post 15-Сен-2009 18:31 (спустя 12 дней)
Раздайте пожалуйстаааа! Sad
Profile PM

batyrmastyr

Стаж: 11 лет

Сообщений: 6505

Откуда: Sekai

Провайдер: Не определен

Пол: Otoko (M)

Он-лайн: Нет

Карма: +33.73

post 14-Июл-2013 18:04 (спустя 3 года 9 месяцев)
Заменил видео на настоящий DVDrip, хотя картинка всё равно оставляет желать лучшего.

_________________
pic
я несу глупость во имя бака-тим
Gundam Team
Yuri TEAM
Термины
Profile PM
Показать сообщения:    
Ответить на тему

Текущее время: 26-Июн 03:04

Часовой пояс: GMT + 3



Вы не можете начинать темы
Вы не можете отвечать на сообщения
Вы не можете редактировать свои сообщения
Вы не можете удалять свои сообщения
Вы не можете голосовать в опросах
Вы не можете прикреплять файлы к сообщениям
Вы можете скачивать файлы
[  Execution time: 0.513 sec  |  MySQL: 0.856 sec (167%) in 21 queries  |  Mem: 410.5 KB / 1.51 MB / 1.09 MB  |  Load: 2.8 2.6 2.3  ]