Loading...
Error

Кровь виновной собаки / Togainu no Chi [2010] [HDTV, приключения, сёнэн-ай] [Leopard-Raws](12)

Ответить на тему
Показать список качающих/скачавших
Размер: 2.3 GB
Зарегистрирован: 6 лет 11 месяцев
Скачан: 43 раза

Сидов:

Имя UL
Ratio
Передано Скорость Провайдер
up down up down
batyrmastyr 0 - - - - Дом.ru
показаны данные только за текущую сессию
 
     
 
 
Автор Сообщение

Nami

Стаж: 10 лет

Сообщений: 425

Откуда: Карповка

Провайдер: ВТ (IXNN)

Пол: Onna (Ж)

Он-лайн: Нет

Карма: 0.00

Кровь виновной собаки / Togainu no Chi

pic
Жанр: приключения, сёнэн-ай
Количество серий: 12 (25 мин.)
Время выхода: c 8.10.2010
Режиссер: Конно Наоюки
Студия: A-1 Pictures Inc.

Качество видео: HDTV
Размер кадра: 1280*720
Битрейт: 1065 кб/с
Рипгруппа: [Leopard-Raws]
Наличие Хардсабов: Нет
Перевод: Субтитры
Цензура: присутствует

Описание: Действие разворачивается в постапокалиптической Японии, власть в которой захватили преступные группировки. История рассказывает о парне по имени Акира, которого незаконно арестовывают и сажают в тюрьму, но предлагают даровать свободу, при условии что он согласится участвовать в смертельной игре под названием Igura и одолеет её "Короля".
Суровые брутальные бисёнены кромсают врагов направо и налево, не испытывая ни капли жалости и чувств. Но всё меняется, когда в игру вступает Акира. (c) Mokky
Личная оценка: 10 - всем советую
MediaInfo
General
Format : MPEG-4
Format profile : Base Media
Codec ID : isom
File size : 209 MiB
Duration : 24mn 29s
Overall bit rate : 1 194 Kbps
Encoded date : UTC 2010-10-09 05:44:17
Tagged date : UTC 2010-10-09 05:44:17

Video
ID : 1
Format : AVC
Format/Info : Advanced Video Codec
Format profile : High@L4.0
Format settings, CABAC : Yes
Format settings, ReFrames : 4 frames
Codec ID : avc1
Codec ID/Info : Advanced Video Coding
Duration : 24mn 29s
Bit rate mode : Variable
Bit rate : 1 065 Kbps
Maximum bit rate : 25.0 Mbps
Width : 1 280 pixels
Height : 720 pixels
Display aspect ratio : 16:9
Frame rate mode : Variable
Frame rate : 24.473 fps
Minimum frame rate : 10.111 fps
Maximum frame rate : 71.500 fps
Color space : YUV
Chroma subsampling : 4:2:0
Bit depth : 8 bits
Scan type : Progressive
Bits/(Pixel*Frame) : 0.047
Stream size : 187 MiB (89%)
Writing library : x264 core 100 r1659M 57b2e56
Encoding settings : cabac=1 / ref=3 / deblock=1:-1:-1 / analyse=0x3:0x113 / me=umh / subme=9 / psy=1 / psy_rd=1.00:0.15 / mixed_ref=1 / me_range=32 / chroma_me=1 / trellis=1 / 8x8dct=1 / cqm=0 / deadzone=21,11 / fast_pskip=1 / chroma_qp_offset=-3 / threads=6 / sliced_threads=0 / nr=0 / decimate=0 / interlaced=0 / constrained_intra=0 / bframes=3 / b_pyramid=2 / b_adapt=2 / b_bias=0 / direct=3 / weightb=1 / open_gop=0 / weightp=2 / keyint=250 / keyint_min=1 / scenecut=40 / intra_refresh=0 / rc_lookahead=40 / rc=crf / mbtree=1 / crf=20.0 / qcomp=0.60 / qpmin=10 / qpmax=51 / qpstep=8 / vbv_maxrate=25000 / vbv_bufsize=31250 / crf_max=0.0 / ip_ratio=1.40 / aq=2:1.00 / nal_hrd=vbr
Encoded date : UTC 2010-10-09 05:08:19
Tagged date : UTC 2010-10-09 05:44:27
Matrix coefficients : BT.709-5, BT.1361, IEC 61966-2-4 709, SMPTE RP177

Audio
ID : 2
Format : AAC
Format/Info : Advanced Audio Codec
Format version : Version 4
Format profile : LC
Format settings, SBR : No
Codec ID : 67
Duration : 24mn 29s
Bit rate mode : Variable
Bit rate : 124 Kbps
Maximum bit rate : 134 Kbps
Channel(s) : 2 channels
Channel positions : Front: L R
Sampling rate : 48.0 KHz
Stream size : 21.8 MiB (10%)
Encoded date : UTC 2010-10-09 05:44:25
Tagged date : UTC 2010-10-09 05:44:27
Скриншоты
pic

pic

pic

pic
Пример скрина с цензурой
pic

Внимание! Вы не авторизировались - скачанный по ссылкам ниже торрент не будет учитываться в вашем личном профиле.

Togainu no Chi HDTV.torrent
Трекер: Зарегистрирован

Торрент

Зарегистрирован: 2010-12-26 00:43
Скачан: 43 раз
Размер: 2.3 GB
Оценка: 4.9 (Голосов: 12)
Поблагодарили: 22   (список)
Поделиться:
 
Список файлов
# \ Папка Togainu no Chi HDTV Размер
1 [Leopard-Raws] Togainu no Chi - 01 (TBS 1280x720 x264).mp4 209 MB
2 [Leopard-Raws] Togainu no Chi - 02 RAW (TBS 1280x720 x264).mp4 202 MB
3 [Leopard-Raws] Togainu no Chi - 03 RAW (TBS 1280x720 x264).mp4 223 MB
4 [Leopard-Raws] Togainu no Chi - 04 RAW (TBS 1280x720 x264).mp4 189 MB
5 [Leopard-Raws] Togainu no Chi - 05 RAW (TBS 1280x720 x264).mp4 191 MB
6 [Leopard-Raws] Togainu no Chi - 06 RAW (TBS 1280x720 x264).mp4 181 MB
7 [Leopard-Raws] Togainu no Chi - 07 RAW (TBS 1280x720 x264).mp4 175 MB
8 [Leopard-Raws] Togainu no Chi - 08 RAW (TBS 1280x720 x264).mp4 195 MB
9 [Leopard-Raws] Togainu no Chi - 09 RAW (TBS 1280x720 x264).mp4 201 MB
10 [Leopard-Raws] Togainu no Chi - 10 RAW (TBS 1280x720 x264).mp4 207 MB
11 [Leopard-Raws] Togainu no Chi - 11 RAW (TBS 1280x720 x264).mp4 179 MB
12 [Leopard-Raws] Togainu no Chi - 12 END (TBS 1280x720 x264).mp4 200 MB

_________________
pic
[YAOI-TEAM] | [One Piece Fan-TeaM] | my anime list


Последний раз редактировалось: Nami (2010-12-26 00:43), всего редактировалось 12 раз(а)
Profile PM

Nami

Стаж: 10 лет

Сообщений: 425

Откуда: Карповка

Провайдер: ВТ (IXNN)

Пол: Onna (Ж)

Он-лайн: Нет

Карма: 0.00

post 11-Окт-2010 17:59 (спустя 13 минут)
Субтитры 1-12
Прикреплённый файл


Последний раз редактировалось: Nami (2010-12-26 00:52), всего редактировалось 9 раз(а)
Profile PM

Hoshi

Стаж: 10 лет

Сообщений: 544

Провайдер: Дом.ru

Пол: Не определилось

Он-лайн: Нет

Карма: 0.00

post 11-Окт-2010 21:39 (спустя 3 часа)
Nami
аригато)))
Profile PM

Djalina

Стаж: 9 лет 8 месяцев

Сообщений: 119

Провайдер: ВТ (IXNN)

Пол: Не определилось

Он-лайн: Нет

Карма: 0.00

post 26-Дек-2010 02:06 (спустя 2 месяца 14 дней)
Спасибо) Дождалась все сразу)
Profile PM
Показать сообщения:    
Ответить на тему

Текущее время: 17-Дек 13:01

Часовой пояс: GMT + 3



Вы не можете начинать темы
Вы не можете отвечать на сообщения
Вы не можете редактировать свои сообщения
Вы не можете удалять свои сообщения
Вы не можете голосовать в опросах
Вы не можете прикреплять файлы к сообщениям
Вы можете скачивать файлы
[  Execution time: 0.334 sec  |  MySQL: 0.400 sec (120%) in 20 queries  |  Mem: 159.91 KB / 1.05 MB / 740.93 KB  |  Load: 2.6 2.3 2.5  ]