Loading...
Error

[Animix]Yebisu Celebrities(1/1)

Ответить на тему
Показать список качающих/скачавших
Размер: 307 MB
Зарегистрирован: 7 лет 1 месяц
Скачан: 61 раз

Полного источника не было: 4 года 6 месяцев

 
     
 
 
Автор Сообщение

Nami

Стаж: 9 лет

Сообщений: 425

Откуда: Карповка

Провайдер: ВТ (IXNN)

Пол: Onna (Ж)

Он-лайн: Нет

Карма: 0.00

Yebisu Celebrities

pic
Жанр: сёнэн-ай
Количество серий: 1 (45 мин.)
Время выхода: 28.05.2010
Автор оригинала: Фува Синри

Качество видео: DVDRip
Размер кадра: 640*480
Битрейт: 804 кб/с
Рипгруппа: [aarinfantasy]
Наличие Хардсабов: Да

Описание: Харука Фудзинами недавно устроился работать в контору Эбису Графикс. В первый же день, его босс-тиран Дайдзё вызывает у него стойкую неприязнь и ненависть, да и есть за что - всю грязную и тяжелую работу босс скидывает на него, сопровождая язвительными комментариями в его адрес. Ничего необычного, но Харука замечает, что чем больше босс на нём отыгрывается, тем симпатичнее кажется в его глазах... Сможеть ли Харука противостоять Дайдзё и показать себя, или же высокий темноволосый незнакомец сможеть овладеть его душой и телом?(c)

Личная оценка: 8 - мне понравилось
MediaInfo
General
Format : AVI
Format/Info : Audio Video Interleave
File size : 307 MiB
Duration : 45mn 31s
Overall bit rate : 943 Kbps
Writing application : VirtualDubMod 1.5.10.1 (build 2366/release)
Writing library : VirtualDubMod build 2366/release

Video
Format : MPEG-4 Visual
Format profile : Streaming Video@L1
Format settings, BVOP : Yes
Format settings, QPel : No
Format settings, GMC : No warppoints
Format settings, Matrix : Default (H.263)
Muxing mode : Packed bitstream
Codec ID : XVID
Codec ID/Hint : XviD
Duration : 45mn 31s
Bit rate : 804 Kbps
Width : 640 pixels
Height : 480 pixels
Display aspect ratio : 4/3
Frame rate : 29.970 fps
Resolution : 24 bits
Colorimetry : 4:2:0
Scan type : Progressive
Bits/(Pixel*Frame) : 0.087
Stream size : 262 MiB (85%)
Writing library : XviD 1.2.0.dev47 (UTC 2006-11-01)

Audio
Format : MPEG Audio
Format version : Version 1
Format profile : Layer 3
Codec ID : 55
Codec ID/Hint : MP3
Duration : 45mn 31s
Bit rate mode : Constant
Bit rate : 128 Kbps
Channel(s) : 2 channels
Sampling rate : 44.1 KHz
Resolution : 16 bits
Stream size : 41.7 MiB (14%)
Alignment : Split accross interleaves
Interleave, duration : 33 ms (1.00 video frame)
Interleave, preload duration : 500 ms
Скриншоты
pic

pic

pic

pic

pic

Внимание! Вы не авторизировались - скачанный по ссылкам ниже торрент не будет учитываться в вашем личном профиле.

[aarinfantasy]_Yebisu_Celebrities_1_[B5BC8C8D].avi.torrent
Трекер: Зарегистрирован

Торрент

Зарегистрирован: 2010-09-02 20:28
Скачан: 61 раз
Размер: 307 MB
Оценка: 4.8 (Голосов: 6)
Поблагодарили: 7   (список)
Поделиться:
 
Список файлов
Файл [aarinfantasy]_Yebisu_Celebrities_1_[B5BC8C8D].avi 307 MB

_________________
pic
[YAOI-TEAM] | [One Piece Fan-TeaM] | my anime list
Profile PM

Nami

Стаж: 9 лет

Сообщений: 425

Откуда: Карповка

Провайдер: ВТ (IXNN)

Пол: Onna (Ж)

Он-лайн: Нет

Карма: 0.00

post 02-Сен-2010 20:29 (спустя 43 секунды)
Сабов пока нет, и неизвестно будут ли вообще.
И чтоб потом не было вопросов, сразу хочу объяснить, что такое анимикс. Это фактически кадры из манги, которым добавили цвета, минимум анимации и озвучку. В данном случае, кроме анимации ртов во время разговора, больше ничего нет.


Последний раз редактировалось: Nami (2010-09-02 20:32), всего редактировалось 1 раз
Profile PM

Hesoka

Стаж: 9 лет 9 месяцев

Сообщений: 578

Провайдер: МТС Домашний (IXNN)

Пол: Onna (Ж)

Он-лайн: Нет

Карма: 0.00

post 02-Сен-2010 20:30 (спустя 1 минута)
Nami
Аригато онэ-сама!!!
Profile PM

Nami

Стаж: 9 лет

Сообщений: 425

Откуда: Карповка

Провайдер: ВТ (IXNN)

Пол: Onna (Ж)

Он-лайн: Нет

Карма: 0.00

post 02-Сен-2010 20:34 (спустя 4 минуты)
Hesoka
Если интересно могу завтра ещё пару вещей выложить. Только там вроде вообще анимации нет. Просто манга в цвете + озвучка. Даже облачка с текстами присутствуют. Сейчас похоже становится популярным дополнять очередной томик манги подобными вещами.
Profile PM
Показать сообщения:    
Ответить на тему

Текущее время: 18-Окт 06:51

Часовой пояс: GMT + 3



Вы не можете начинать темы
Вы не можете отвечать на сообщения
Вы не можете редактировать свои сообщения
Вы не можете удалять свои сообщения
Вы не можете голосовать в опросах
Вы не можете прикреплять файлы к сообщениям
Вы можете скачивать файлы
[  Execution time: 0.133 sec  |  MySQL: 0.024 sec (18%) in 20 queries  |  Mem: 159.45 KB / 1.04 MB / 712.89 KB  |  Load: 1.1 0.9 1  ]