Loading...
Error

Гонки сектора D/ Tau man ji D (Вэй Кеунг Лау) [2005, боевик, триллер, драма, криминал, HQRip]

Ответить на тему
Показать список качающих/скачавших
Размер: 1.46 GB
Зарегистрирован: 11 лет
Скачан: 0 раз

Полного источника не было: 11 лет

 
     
 
 
Автор Сообщение

Артем

Стаж: 14 лет

Сообщений: 1468

Провайдер: Дом.ru

Пол: Otoko (M)

Он-лайн: Нет

Карма: 0.00

Гонки сектора D/ Tau man ji D

pic
Год выпуска: 2005
Страна: Basic Pictures
Слоган:«How fast is 1 second?»
Жанр: боевик, триллер, драма, криминал
Продолжительность: 01:48:46
Перевод: Профессиональный (многоголосый, закадровый)
Режиссер: Вэй Кеунг Лау
В ролях: Шон Юе, Эдисон Чен, Джей Чоу, Энтони Вонг Чау-Санг, Чэпман То, Цуёши Абе, Энн Сузуки, Кенни Би, Liu Keng Hung, Джордан Чан

Описание: Гонконгский экшн, снятый по популярным японским комиксам. Фильм про дрифтинг, который зародился в горах азиатских стран. Такуми Фудзивара, 18-летний парень, который проводит свободное от учебы время работая на заправке и развозя творог на старой отцовской Тойоте. Все меняется, когда оказывается что отец Такуми, пьянчуга Банта - бывший автогонщик, а старая Тойота - навороченная гоночная тачка. В жилах Такуми тоже течет кровь гонщика и на такой машине он способен сделать любого на популярных подпольных гонках, которые привлекают все больше и больше претендентов, желающих бросить ему вызов. В конце концов, там появляется Рёсуке, японский уличный гонщик № 1. Он серьезно подошел к гонке и полон решимости выиграть у Такуми любой ценой!

Личная оценка: 10 - всем советую
Скриншоты
pic
pic
pic
pic
pic
media info
General
Complete name : D:\Фильмы\Tau man ji D.avi
Format : AVI
Format/Info : Audio Video Interleave
File size : 1.46 GiB
Duration : 1h 48mn
Overall bit rate : 1 917 Kbps
Movie name : Экстремальные гонки / Tau man ji D / Initial D (2005)
Director : SENATOR (BDRip 720)
Writing application : VirtualDubMod 1.5.4.1 (build 2178/release)
Copyright : HQ-ViDEO (www.hq-video.ru)
Comment : 5.05.2008

Video
ID : 0
Format : MPEG-4 Visual
Format profile : Advanced Simple@L5
Format settings, BVOP : Yes
Format settings, QPel : No
Format settings, GMC : No warppoints
Format settings, Matrix : Default (MPEG)
Codec ID : XVID
Codec ID/Hint : XviD
Duration : 1h 48mn
Bit rate : 1 524 Kbps
Width : 720 pixels
Height : 304 pixels
Display aspect ratio : 2.35:1
Frame rate : 24.000 fps
Color space : YUV
Chroma subsampling : 4:2:0
Bit depth : 8 bits
Scan type : Progressive
Bits/(Pixel*Frame) : 0.290
Stream size : 1.16 GiB (79%)
Writing library : XviD 1.2.0.dev47 (UTC 2006-11-01)

Audio
ID : 1
Format : AC-3
Format/Info : Audio Coding 3
Mode extension : CM (complete main)
Codec ID : 2000
Duration : 1h 48mn
Bit rate mode : Constant
Bit rate : 384 Kbps
Channel(s) : 6 channels
Channel positions : Front: L C R, Side: L R, LFE
Sampling rate : 48.0 KHz
Stream size : 299 MiB (20%)
Alignment : Split accross interleaves
Interleave, duration : 42 ms (1.00 video frame)
Interleave, preload duration : 500 ms

Внимание! Вы не авторизировались - скачанный по ссылкам ниже торрент не будет учитываться в вашем личном профиле.

Tau man ji D.avi.torrent
Трекер: Зарегистрирован

Торрент

Зарегистрирован: 2010-08-14 13:05
Скачан: 0 раз
Размер: 1.46 GB
Оценка: 4.5 (Голосов: 2)
Поблагодарили: 0
 
Список файлов
Файл Tau man ji D.avi 1.46 GB

_________________
pic
Profile PM

Ommoz

Стаж: 13 лет

Сообщений: 52

Откуда: оттуда

Провайдер: Билайн (IXNN)

Пол: Не определилось

Он-лайн: Нет

Карма: 0.00

post 14-Авг-2010 13:16 (спустя 10 минут)
А я смотрел ето кино,прикольное кстати
Profile PM

Артем

Стаж: 14 лет

Сообщений: 1468

Провайдер: Дом.ru

Пол: Otoko (M)

Он-лайн: Нет

Карма: 0.00

post 14-Авг-2010 14:33 (спустя 1 час 17 минут)
Ommoz
лучше посмотреть аниме, потому что тут все переврали.
Profile PM

Ommoz

Стаж: 13 лет

Сообщений: 52

Откуда: оттуда

Провайдер: Билайн (IXNN)

Пол: Не определилось

Он-лайн: Нет

Карма: 0.00

post 15-Авг-2010 13:36 (спустя 23 часа)
Артем Это которое инициал д?
Profile PM

Артем

Стаж: 14 лет

Сообщений: 1468

Провайдер: Дом.ru

Пол: Otoko (M)

Он-лайн: Нет

Карма: 0.00

post 15-Авг-2010 13:41 (спустя 4 минуты)
Ommoz
да
Profile PM

DarkSavant

Карма: 0.00

post 18-Авг-2010 13:55 (спустя 3 дня)
Пытался посмотреть сей фильм... не осилил, на мой взгляд полное Г.
 

diego1991

Стаж: 14 лет

Сообщений: 107

Откуда: Великий Дуст

Провайдер: ВТ (IXNN)

Пол: Не определилось

Он-лайн: Нет

Карма: 0.00

post 20-Сен-2010 20:17 (спустя 1 месяц 2 дня)
Фильм на любителя, понравилась последняя гонка... и не заурядное поведение главного героя... по отношению к гонкам)))

запомнился момент с клией) и как тошнило толстичка))) после гонки целых 2 недели)
Profile PM
Показать сообщения:    
Ответить на тему

Текущее время: 13-Авг 03:05

Часовой пояс: GMT + 3



Вы не можете начинать темы
Вы не можете отвечать на сообщения
Вы не можете редактировать свои сообщения
Вы не можете удалять свои сообщения
Вы не можете голосовать в опросах
Вы не можете прикреплять файлы к сообщениям
Вы можете скачивать файлы
[  Execution time: 1.118 sec  |  MySQL: 2.094 sec (187%) in 20 queries  |  Mem: 413.91 KB / 1.54 MB / 1.12 MB  |  Load: 0.6 0.7 0.7  ]