Loading...
Error

Поиск

Параметры запроса
Ключевые слова

  

Поиск по автору

 

Вы можете использовать + (знак "плюс" написанный слитно перед словом: "+слово") чтобы определить слова, которые должны быть в результатах и - (знак "минус") для слов, которых не должно быть. Используйте * в качестве шаблона для частичного совпадения.

Форум:

Мои закачки
Время размещения:

 

Показывать результаты как:

 

Упорядочить по:

 

Результатов поиска: 75

Автор Сообщение

Nami

post 17-Апр-2011 18:27

Quote

Sekai Ichi Hatsukoi
Лучшая в мире первая любовь
世界一初恋

pic
Жанр: cёнен-ай, романтика, комедия
Количество серий: 12
Время выхода: c 09.04.2011
Режиссер: Кон Тиаки
Студия: Studio Deen

Качество видео: HDTV
Размер кадра: 1280*720
Битрейт: 1086 кб/с
Рипгруппа: [Epic-Raws](1-11),[Zero-Raws](12)
Наличие Хардсабов: Нет
Перевод: Субтитры

Снято по манге: Sekai-ichi Hatsukoi: Onodera Ritsu no Baai
Автор оригинала: Накамура Сюнгику

Описание: Главный герой, Онодера Рицу, только что перевелся из компании своего отца в издательство "Марукава". По какому-то непонятному недоразумению, вместо того, чтобы попасть в отдел художественной литературы, где он мечтал работать, Рицу попадает в отдел сёдзё манги, где встречается с человеком, которого меньше всего ожидал встретить. Такано Масамуне - главный редактор отдела сёдзё манги. Их отношения с Рицу не ладятся с самого начала, такого дерзкого и нахального человека, как Масамуне, еще надо бы поискать и тут Такано, в первый же рабочий день, неожиданно целует Рицу. Правда, сделано это было работы ради, но не все так просто как кажется на первый взгляд. В последствии выясняется, что фамилия Масамуне раньше была не Такано, а Сага и он был первой школьной любовью Рицу, который хотел забыть о ней, так как думал, что Сага просто поиграл с его чувствами и бросил его. В свою очередь Такано уверен, что все было совсем наоборот и клянется, что во что бы то ни стало снова влюбит в себя Рицу. Вот тут-то и начинается самое интересное...

Личная оценка: 10 - всем советую
MediaInfo
General
Format profile : Base Media
Codec ID : isom
File size : 220 MiB
Duration : 24mn 0s
Overall bit rate : 1 279 Kbps
Encoded date : UTC 2011-04-09 15:45:28
Tagged date : UTC 2011-04-09 15:45:28

Video
ID : 1
Format : AVC
Format/Info : Advanced Video Codec
Format profile : High@L4.1
Format settings, CABAC : Yes
Format settings, ReFrames : 4 frames
Format settings, GOP : M=1, N=32
Codec ID : avc1
Codec ID/Info : Advanced Video Coding
Duration : 24mn 0s
Bit rate mode : Variable
Bit rate : 1 086 Kbps
Maximum bit rate : 31.2 Mbps
Width : 1 280 pixels
Height : 720 pixels
Display aspect ratio : 16:9
Frame rate mode : Variable
Frame rate : 24.474 fps
Minimum frame rate : 23.833 fps
Maximum frame rate : 62.563 fps
Color space : YUV
Chroma subsampling : 4:2:0
Bit depth : 8 bits
Scan type : Progressive
Bits/(Pixel*Frame) : 0.048
Stream size : 186 MiB (85%)
Writing library : x264 core 112 r1867 22bfd31
Encoding settings : cabac=1 / ref=3 / deblock=1:-1:-1 / analyse=0x3:0x113 / me=umh / subme=9 / psy=1 / psy_rd=1.00:0.15 / mixed_ref=1 / me_range=32 / chroma_me=1 / trellis=1 / 8x8dct=1 / cqm=0 / deadzone=21,11 / fast_pskip=1 / chroma_qp_offset=-3 / threads=6 / sliced_threads=0 / nr=0 / decimate=0 / interlaced=0 / constrained_intra=0 / bframes=3 / b_pyramid=2 / b_adapt=2 / b_bias=0 / direct=3 / weightb=1 / open_gop=0 / weightp=2 / keyint=250 / keyint_min=1 / scenecut=40 / intra_refresh=0 / rc_lookahead=40 / rc=crf / mbtree=1 / crf=20.0 / qcomp=0.60 / qpmin=0 / qpmax=51 / qpstep=8 / vbv_maxrate=31250 / vbv_bufsize=31250 / crf_max=0.0 / nal_hrd=vbr / ip_ratio=1.40 / aq=2:1.00
Encoded date : UTC 2011-04-09 14:59:04
Tagged date : UTC 2011-04-09 15:45:38
Matrix coefficients : BT.709-5, BT.1361, IEC 61966-2-4 709, SMPTE RP177

Audio
ID : 2
Format : AAC
Format/Info : Advanced Audio Codec
Format version : Version 4
Format profile : LC
Format settings, SBR : No
Codec ID : 40
Duration : 24mn 0s
Bit rate mode : Variable
Bit rate : 192 Kbps
Maximum bit rate : 197 Kbps
Channel(s) : 2 channels
Channel positions : Front: L R
Sampling rate : 48.0 KHz
Stream size : 32.4 MiB (15%)
Encoded date : UTC 2011-04-09 15:45:36
Tagged date : UTC 2011-04-09 15:45:38
Скриншоты
pic pic pic pic pic pic pic pic pic pic pic pic

>ReNao<

post 11-Дек-2010 22:00

Quote

Princess Princess
Принцесса Принцесса

pic
Жанр: сёнэн-ай, комедия, школа, сёдзё
Количество серий: 12
Время выхода: 2006
Режиссер: Мотонага Кэйтаро
Студия: Studio Deen
Качество видео: TVRip
Размер кадра: 704x396
Битрейт: 1 307 кб/с
Наличие Хардсабов: Нет
Перевод: Одноголосный
Описание: Тору Коно переводится в новую школу. Он слышал, что там высокий уровень преподавания и сложившиеся традиции, но понятия не имел, в какие крайности пускаются старшие ученики, чтобы превозмочь тяготы раздельного обучения... Познакомившись с первокурсниками Юдзиро Сиходани и Микото Ютакой, он не сразу понимает, что это – такие же мальчики, как и он. Ибо с какой стати парням носить юбки с оборочками?..
(c)world-art.ru


История вращается вокруг жизни трёх мальчиков, одевающихся в женские платья перед учениками элитной школы, которую они посещают. Главный герой Princess Princess — Тору Коно, только что переведённый в новую школу для мальчиков Фудзимори после временного проживания с его дядей. Он становится одним из Химэ (姫) или «Принцесс». Выбор принцесс — традиция школы, созданная, чтобы разнообразить жизнь учеников, проходящую в окружении одних мужчин. Студенты (на основании определенных качеств) выбирают принцесс, те одеваются в женские платья и присутствуют на школьных мероприятиях. В начале истории уже есть две такие принцессы, Юдзиро Сиходани и Микото Ютака, известные как «западная» и «восточная» принцессы в связи с расположением их мест в комнате. Тору убеждают стать принцессой вскоре после поступления в школу, и со временем он находит эту работу гораздо приятней, чем поначалу казалось. (с) Wiki
Media info
General
UniqueID : 237722524583376663779633227895297059671 (0xB2D7B15EF2C1B055A223B4C42EB8AB57)
Format : Matroska
File size : 286 MiB
Overall bit rate : 1 725 Kbps
Encoded date : UTC 2009-11-02 20:40:00
Writing application : mkvmerge v2.5.3 ('Boogie') built on Mar 7 2009 15:00:41
Writing library : libebml v0.7.7 + libmatroska v0.8.1

Video
ID : 1
Format : AVC
Format/Info : Advanced Video Codec
Format profile : High@L5.1
Format settings, CABAC : Yes
Format settings, ReFrames : 1 frame
Codec ID : V_MPEG4/ISO/AVC
Duration : 23mn 11s
Bit rate : 1 307 Kbps
Width : 704 pixels
Height : 396 pixels
Display aspect ratio : 16:9
Frame rate : 23.976 fps
Color space : YUV
Chroma subsampling : 4:2:0
Bit depth : 8 bits
Scan type : Progressive
Bits/(Pixel*Frame) : 0.196
Stream size : 217 MiB (76%)
Writing library : x264 core 58 svn-736bm
Encoding settings : cabac=1 / ref=1 / deblock=1:0:0 / analyse=0x3:0x13 / me=umh / subme=6 / brdo=0 / mixed_ref=0 / me_range=16 / chroma_me=1 / trellis=1 / 8x8dct=1 / cqm=0 / deadzone=21,11 / chroma_qp_offset=0 / threads=1 / nr=0 / decimate=1 / mbaff=0 / bframes=0 / keyint=250 / keyint_min=25 / scenecut=40 / rc=crf / crf=15.0 / rceq='blurCplx^(1-qComp)' / qcomp=0.60 / qpmin=10 / qpmax=51 / qpstep=4 / ip_ratio=1.40

Audio #1
ID : 2
Format : MPEG Audio
Format version : Version 1
Format profile : Layer 3
Mode : Joint stereo
Codec ID : A_MPEG/L3
Codec ID/Hint : MP3
Duration : 23mn 11s
Bit rate mode : Constant
Bit rate : 192 Kbps
Channel(s) : 2 channels
Sampling rate : 48.0 KHz
Compression mode : Lossy
Stream size : 31.9 MiB (11%)
Title : Persona99 (mp3_192)
Language : Russian

Audio #2
ID : 3
Format : MPEG Audio
Format version : Version 1
Format profile : Layer 3
Mode : Joint stereo
Mode extension : MS Stereo
Codec ID : A_MPEG/L3
Codec ID/Hint : MP3
Duration : 23mn 11s
Bit rate mode : Constant
Bit rate : 192 Kbps
Channel(s) : 2 channels
Sampling rate : 48.0 KHz
Compression mode : Lossy
Stream size : 31.9 MiB (11%)
Title : mp3 192 kbps
Writing library : LAME3.96
Language : Japanese

Text
ID : 4
Format : ASS
Codec ID : S_TEXT/ASS
Codec ID/Info : Advanced Sub Station Alpha
Compression mode : Lossless
Language : Russian
Отличие от других раздач (https://forum.touki.ru/viewtopic.php?t=1467):
Лучше качество видео

Личная оценка: 9 - торкнуло
Скриншоты
pic
pic
pic
pic

batyrmastyr

post 20-Ноя-2010 06:27

Quote

Loveless
Нелюбимый
ラブレス
pic
Тип: ТВ сериал
Жанры: драма, мистика, романтика, сёнэн-ай,
Длительность: 12 эп. по 23 мин.
Год выхода: 2005
Страна: Япония

Режиссёр: Ко Ю | Kou Yuu
Снято по: манге Loveless
Автор оригинала: Кога Юн | Kouga Yun
Студия: J.C. Staff

Описание: Какой может быть жизнь в мире, где по внешнему виду человека можно сразу понять – невинен он или нет? Признаком юности являются ушки и хвост, исчезающие после утраты девственности, и не случайно проблемы взросления занимают в этом сериале ключевое место. Бесконечные вопросы, сомнения, неуверенность и страдания, причины которых даже выразить трудно... Здесь разница между взрослыми и детьми настолько очевидна, что подросткам, стоящим на границе, приходится нелегко, и «ушки» уже не кажутся такими милыми и трогательными, как можно себе представить.

А ещё в этом мире есть тайные силы – и «пары» бойцов, связанных общим именем, используют магию слов в опасных поединках. Главный герой, 12-летний Рицка «Нелюбимый», узнаёт об этом через два года после смерти старшего брата Сэмэя. Тогда мальчик частично потерял память, и сам стал угрюмым и замкнутым, поэтому ему приходится посещать психолога. В новой школе он держится отчуждённо, дома над ним издевается безумная мать, но многое меняется, когда Рицка встречает друга Сэмея – взрослого загадочного Соби. И когда на них нападают юноши из таинственной организации «Семь Лун», становится понятно, что гибель Сэмэя «Возлюбленного» не была случайной...
© Расселл Д. Джонс, World Art

Сериал практически для всех. Любители кавая получат кавай, те, кому нравится тяжелая психология, её найдут, ищущие красивых спецэффектов тоже не почувствуют себя обиженными. А ценитель аниме сможет в полной мере насладиться виртуозно добавленными символами, сплетёному в венок букету идей и просто профессиональной прорисовкой.

От себя: даже поклонники сёдзё-ай не уйдут обиженными ^_^

В энциклопедиях: anidb.net  |  animenewsnetwork.com  |  world-art.ru  |  ru.wikipedia.org
Личная оценка: 10 из 10- Шедевр

Качество видео: DVDrip, без хардсаба
Контейнер: Matroska (MKV)
Видео: H.264/AVC, 716×480 (16/9), 900 Кбит/с
Аудио:
  • Японская | AAC, 2 канала, 128 кбит/с
  • Русская, одноголосная, Лурье | AAC, 2 канала, 128 кбит/с
Субтитры: Русские, unvasily | отключаемые, встроенные

Скриншоты
pic pic pic pic pic pic pic pic


Nami

post 16-Ноя-2010 22:01

Quote

Денег нет! / Okane ga Nai! [2007][DVDrip, сёнэн-ай, романтика, драма][4](OVA)

pic
Жанр: сёнэн-ай, романтика, драма
Количество серий: 4 эп. (~ 30 мин.)
Время выхода: c 09.02.2007 по 21.12.2007
Режиссер: Сокудза Макото
Студия: Media Blasters

Качество видео: DVDRip
Размер кадра: 720x400
Битрейт: 1 406 Kbps кб/с
Рипгруппа: [Lyurika]
Наличие Хардсабов: Нет
Перевод: Субтитры / Одноголосый перевод (на выбор)

Описание: Юный Аясэ пал жертвой человеческого вероломства: двоюродный брат уговорил его поставить подпись на долговых обязательствах, выплатить которые кузенам не под силу, и сбежал. В погашение долга Аясэ – красивый хрупкий подросток – оказался выставлен на отвратительном мафиозном аукционе, специализирующемся на живых секс-игрушках.
Там его приобрел г-н Кано, богатый делец... что ж, участь Аясэ предрешена! Правда, он еще не знает, что Кано видел его прежде, и что сомнительная покупка сделана им не из мимолетной прихоти...
Личная оценка: 9 - торкнуло
MediaInfo
General
Format : AVI
Format/Info : Audio Video Interleave
File size : 301 MiB
Duration : 29mn 54s
Overall bit rate : 1 406 Kbps
Writing application : VirtualDubMod 1.5.4.1 (build 2178/release)
Writing library : VirtualDubMod build 2178/release

Video
ID : 0
Format : MPEG-4 Visual
Format profile : Simple@L0
Format settings, BVOP : No
Format settings, QPel : No
Format settings, GMC : No warppoints
Format settings, Matrix : Default (H.263)
Codec ID : XVID
Codec ID/Hint : XviD
Duration : 29mn 54s
Bit rate : 1 141 Kbps
Width : 720 pixels
Height : 400 pixels
Display aspect ratio : 16:9
Frame rate : 23.976 fps
Color space : YUV
Chroma subsampling : 4:2:0
Bit depth : 8 bits
Scan type : Progressive
Bits/(Pixel*Frame) : 0.165
Stream size : 244 MiB (81%)
Writing library : XviD 1.0.3 (UTC 2004-12-20)

Audio #1
ID : 1
Format : MPEG Audio
Format version : Version 1
Format profile : Layer 3
Mode : Joint stereo
Codec ID : 55
Codec ID/Hint : MP3
Duration : 29mn 53s
Bit rate mode : Constant
Bit rate : 128 Kbps
Channel(s) : 2 channels
Sampling rate : 48.0 KHz
Stream size : 27.4 MiB (9%)
Alignment : Aligned on interleaves
Interleave, duration : 83 ms (2.00 video frames)
Interleave, preload duration : 504 ms
Writing library : LAME3.98r
Encoding settings : -m j -V 4 -q 2 -lowpass 17 -b 128
Language : Russian

Audio #2
ID : 2
Format : MPEG Audio
Format version : Version 1
Format profile : Layer 3
Mode : Joint stereo
Codec ID : 55
Codec ID/Hint : MP3
Duration : 29mn 53s
Bit rate mode : Constant
Bit rate : 128 Kbps
Channel(s) : 2 channels
Sampling rate : 48.0 KHz
Stream size : 27.4 MiB (9%)
Alignment : Aligned on interleaves
Interleave, duration : 83 ms (2.00 video frames)
Interleave, preload duration : 504 ms
Writing library : LAME3.98r
Encoding settings : -m j -V 4 -q 2 -lowpass 17 -b 128
Language : Japanese
Скриншоты
pic

pic

pic

pic

pic

pic

Дух Охоты

post 07-Ноя-2010 13:31

Quote

Райская школа / Gakuen Heaven [2006] [сёнэн-ай, романтика, школа, сёдзё] [DVDRip]

pic
Жанр: сёнэн-ай, романтика, школа, сёдзё
Количество серий: ТВ (13 эп.), 25 мин.
Время выхода: 2006
Режиссер: Хииро Юкина
Студия: TOKYO KIDS

Качество видео: DVDRip
Формат: MKV
Размер кадра: 848x480
Битрейт: 1500 kbps
Видео кодек: H.264
Аудио кодек: OGG Vorbis
Видео: h264, 848x480, 1500kbps
Аудио: RU - VO, Ogg Vorbis, stereo, 160 kbps; JP - Ogg Vorbis, stereo, 160 kbps
Наличие Хардсабов: Нет
Перевод: Любительский (Одноголосный)

Перевод: Lit
Озвучивание: Suzaku

Описание: Описание: Совершенно неожиданно Кейто Ито получил «платиновый лист» – приглашение перевестись в элитную академию. Предложение более чем заманчивое, но, говоря по совести, Кейто не может понять, отчего выбор строгой комиссии пал на него – у него нет никаких особых талантов. Однако отказаться от подобного шанса немыслимо, и он едет навстречу неизвестности – на встречу с загадочным незнакомцем, рекомендовавшим его Совету…
(world-art.ru)

Отличие от существующей на трекере раздачи http://www.forum.touki.ru/viewtopic.php?t=2263:
1. Лучше качество - DVDRip / TVRip
2. Больше размер кадра - 848x480 / 640x360
3. Отсутствие хардсаба
4. Две звуковые дорожки на выбор - русская и японская
5. Отключаемые субтитры - русские и английские

P.S. Раздача утащена с рутрекера, это лучшее качество этого сериала из всего что мне попадалось - специально чтобы сохранить для домашней коллекции)
Смотреть советую через VLC media player, в нем очень удобно переключаться между дорожками и субтитрами.
В ближайшее время в соседней теме выложу пак обоев и скринов к этому аниме и яой-игре.

Раздаю каждый день примерно с 10 утра до 10 вечера!

Личная оценка: 10 - всем советую
Скриншоты
pic

pic

pic

pic

pic

pic

Nami

post 11-Окт-2010 17:59

Quote

Кровь виновной собаки / Togainu no Chi

pic
Жанр: приключения, сёнэн-ай
Количество серий: 12 (25 мин.)
Время выхода: c 8.10.2010
Режиссер: Конно Наоюки
Студия: A-1 Pictures Inc.

Качество видео: HDTV
Размер кадра: 1280*720
Битрейт: 1065 кб/с
Рипгруппа: [Leopard-Raws]
Наличие Хардсабов: Нет
Перевод: Субтитры
Цензура: присутствует

Описание: Действие разворачивается в постапокалиптической Японии, власть в которой захватили преступные группировки. История рассказывает о парне по имени Акира, которого незаконно арестовывают и сажают в тюрьму, но предлагают даровать свободу, при условии что он согласится участвовать в смертельной игре под названием Igura и одолеет её "Короля".
Суровые брутальные бисёнены кромсают врагов направо и налево, не испытывая ни капли жалости и чувств. Но всё меняется, когда в игру вступает Акира. (c) Mokky
Личная оценка: 10 - всем советую
MediaInfo
General
Format : MPEG-4
Format profile : Base Media
Codec ID : isom
File size : 209 MiB
Duration : 24mn 29s
Overall bit rate : 1 194 Kbps
Encoded date : UTC 2010-10-09 05:44:17
Tagged date : UTC 2010-10-09 05:44:17

Video
ID : 1
Format : AVC
Format/Info : Advanced Video Codec
Format profile : High@L4.0
Format settings, CABAC : Yes
Format settings, ReFrames : 4 frames
Codec ID : avc1
Codec ID/Info : Advanced Video Coding
Duration : 24mn 29s
Bit rate mode : Variable
Bit rate : 1 065 Kbps
Maximum bit rate : 25.0 Mbps
Width : 1 280 pixels
Height : 720 pixels
Display aspect ratio : 16:9
Frame rate mode : Variable
Frame rate : 24.473 fps
Minimum frame rate : 10.111 fps
Maximum frame rate : 71.500 fps
Color space : YUV
Chroma subsampling : 4:2:0
Bit depth : 8 bits
Scan type : Progressive
Bits/(Pixel*Frame) : 0.047
Stream size : 187 MiB (89%)
Writing library : x264 core 100 r1659M 57b2e56
Encoding settings : cabac=1 / ref=3 / deblock=1:-1:-1 / analyse=0x3:0x113 / me=umh / subme=9 / psy=1 / psy_rd=1.00:0.15 / mixed_ref=1 / me_range=32 / chroma_me=1 / trellis=1 / 8x8dct=1 / cqm=0 / deadzone=21,11 / fast_pskip=1 / chroma_qp_offset=-3 / threads=6 / sliced_threads=0 / nr=0 / decimate=0 / interlaced=0 / constrained_intra=0 / bframes=3 / b_pyramid=2 / b_adapt=2 / b_bias=0 / direct=3 / weightb=1 / open_gop=0 / weightp=2 / keyint=250 / keyint_min=1 / scenecut=40 / intra_refresh=0 / rc_lookahead=40 / rc=crf / mbtree=1 / crf=20.0 / qcomp=0.60 / qpmin=10 / qpmax=51 / qpstep=8 / vbv_maxrate=25000 / vbv_bufsize=31250 / crf_max=0.0 / ip_ratio=1.40 / aq=2:1.00 / nal_hrd=vbr
Encoded date : UTC 2010-10-09 05:08:19
Tagged date : UTC 2010-10-09 05:44:27
Matrix coefficients : BT.709-5, BT.1361, IEC 61966-2-4 709, SMPTE RP177

Audio
ID : 2
Format : AAC
Format/Info : Advanced Audio Codec
Format version : Version 4
Format profile : LC
Format settings, SBR : No
Codec ID : 67
Duration : 24mn 29s
Bit rate mode : Variable
Bit rate : 124 Kbps
Maximum bit rate : 134 Kbps
Channel(s) : 2 channels
Channel positions : Front: L R
Sampling rate : 48.0 KHz
Stream size : 21.8 MiB (10%)
Encoded date : UTC 2010-10-09 05:44:25
Tagged date : UTC 2010-10-09 05:44:27
Скриншоты
pic

pic

pic

pic
Пример скрина с цензурой
pic

Nami

post 04-Окт-2010 16:49

Quote

Лучший любовник / Gokujou no Koibito

pic
Жанр: яой, романтика, драма,
Количество серий: 1 (40 мин.)
Время выхода: 26.08.2010
Автор оригинала: Масара Минасе (Masara Minase)

Качество видео: DVDRip
Размер кадра: 720*480
Битрейт: 805 кб/с
Рипгруппа: [aarinfantasy]
Наличие Хардсабов: Да
Перевод: Отсутствует
Описание: Масахиро, ведущему менеджеру модельного агенства, поручают присмотреть за новым "проектом" - Ёсими. Ему всего 16, он сын известного политика, обладает потрясающей внешностью и невыносимым характером. Масахиро приходится тяжело, но еще тяжелее становится, когда его подопечный узнает о нетрадиционной ориентации своего менеджера и решает поэкспериментировать с ним в постели..
Личная оценка: 10 - всем советую
MediaInfo
General
Format : AVI
Format/Info : Audio Video Interleave
File size : 271 MiB
Duration : 40mn 12s
Overall bit rate : 943 Kbps
Writing application : VirtualDubMod 1.5.10.1 (build 2366/release)
Writing library : VirtualDubMod build 2366/release

Video
ID : 0
Format : MPEG-4 Visual
Format profile : Advanced Simple@L5
Format settings, BVOP : Yes
Format settings, QPel : No
Format settings, GMC : No warppoints
Format settings, Matrix : Default (H.263)
Muxing mode : Packed bitstream
Codec ID : XVID
Codec ID/Hint : XviD
Duration : 40mn 12s
Bit rate : 805 Kbps
Width : 720 pixels
Height : 480 pixels
Display aspect ratio : 3:2
Frame rate : 23.976 fps
Standard : NTSC
Color space : YUV
Chroma subsampling : 4:2:0
Bit depth : 8 bits
Scan type : Progressive
Bits/(Pixel*Frame) : 0.097
Stream size : 232 MiB (85%)
Writing library : XviD 1.2.0.dev47 (UTC 2006-11-01)

Audio
ID : 1
Format : MPEG Audio
Format version : Version 1
Format profile : Layer 3
Mode : Joint stereo
Mode extension : MS Stereo
Codec ID : 55
Codec ID/Hint : MP3
Duration : 40mn 12s
Bit rate mode : Constant
Bit rate : 128 Kbps
Channel(s) : 2 channels
Sampling rate : 48.0 KHz
Stream size : 36.8 MiB (14%)
Alignment : Split accross interleaves
Interleave, duration : 42 ms (1.00 video frame)
Interleave, preload duration : 500 ms
Writing library : LAME3.98
Скриншоты
pic

pic

pic

pic

pic

Nami

post 02-Окт-2010 13:56

Quote

Мальчик-горничная Куро-кун ~Песня Ангела~ / Shounen Maid Kuro-kun ~Tenshi no Uta~

pic
Жанр: драма, яой, сетакон
Количество серий: 1 OVA (33 мин.)
Время выхода: 23.09.2010
Режиссер: Ятабэ Кацуёси
Автор оригинала: Хиираги Масаки

Качество видео: DVDRip
Размер кадра: 640*480
Битрейт: 1500 кб/с
Наличие Хардсабов: Нет
Цензура: есть
Перевод: отсутствует

Описание: Главный герой попадает в яойное рабство за долги отца...
Личная оценка: 8 - мне понравилось
MediaInfo
General
Format : Windows Media
File size : 375 MiB
Duration : 33mn 18s
Overall bit rate mode : Constant
Overall bit rate : 1 574 Kbps
Maximum Overall bit rate : 1 628 Kbps
Encoded date : UTC 1970-01-01 00:00:00.000

Video
ID : 1
Format : WMV2
Codec ID : WMV2
Codec ID/Info : Windows Media Video 8
Description of the codec : wmv2
Duration : 33mn 18s
Bit rate mode : Constant
Bit rate : 1 500 Kbps
Width : 640 pixels
Height : 480 pixels
Display aspect ratio : 4:3
Frame rate : 29.970 fps
Bit depth : 8 bits
Bits/(Pixel*Frame) : 0.163
Stream size : 357 MiB (95%)
Language : English (US)

Audio
ID : 2
Format : WMA
Format version : Version 2
Codec ID : 161
Codec ID/Info : Windows Media Audio
Description of the codec : Windows Media Audio V8
Duration : 33mn 18s
Bit rate mode : Constant
Bit rate : 128 Kbps
Channel(s) : 2 channels
Sampling rate : 44.1 KHz
Bit depth : 16 bits
Stream size : 30.5 MiB (8%)
Language : English (US)
Скриншоты
pic

pic

pic

pic

Nami

post 02-Окт-2010 13:33

Quote

Shounen Maid Curo-kun [Comic Movie]
Мальчик-горничная Куро
アニメ 少年メイドクーロ君 ~天使の歌~


Тип: OVA

pic
Жанры: драма, яой, сетакон
Длительность: 1 эп. по 30 мин.
Время выхода: 22.10.2009
Страна: Япония

Режиссёр: Ятабэ Кацуёси
Автор оригинала: Хиираги Масаки

Описание: Расплачиваясь за долги отца, Куро был продан в сексуальное рабство…

В энциклопедиях:   AniDB  |  World Art

Личная оценка: 7 из 10 — на любителя

  • Качество видео:
    • DVDrip, есть цензура
    Видео:
    • AVC, 704 * 396, 557 кбит/с
    Аудио:
    • Японская | AAC, 2 канала, 265 кбит/с - оригинальная, в контейнере


Скриншоты:
pic pic pic pic pic pic pic
Параметры видео | аудио:
General
Complete name : /Volumes/t/ongoing/Shounen Maid Curo-kun [Comic Movie ] [RAW].mp4
Format : MPEG-4
Format profile : Base Media
Codec ID : isom
File size : 185 MiB
Duration : 31mn 13s
Overall bit rate mode : Variable
Overall bit rate : 826 Kbps
Encoded date : UTC 2009-10-26 12:13:51
Tagged date : UTC 2009-10-26 12:13:51

Video
ID : 1
Format : AVC
Format/Info : Advanced Video Codec
Format profile : Main@L3.0
Format settings, CABAC : Yes
Format settings, ReFrames : 2 frames
Codec ID : avc1
Codec ID/Info : Advanced Video Coding
Duration : 31mn 13s
Duration_FirstFrame : -17ms
Bit rate : 557 Kbps
Maximum bit rate : 2 969 Kbps
Width : 704 pixels
Height : 396 pixels
Display aspect ratio : 16:9
Frame rate mode : Variable
Frame rate : 29.970 fps
Minimum frame rate : 29.970 fps
Maximum frame rate : 39.960 fps
Color space : YUV
Chroma subsampling : 4:2:0
Bit depth : 8 bits
Scan type : Progressive
Bits/(Pixel*Frame) : 0.067
Stream size : 124 MiB (67%)
Writing library : x264 core 67 r1163 3f56e27
Encoding settings : cabac=1 / ref=1 / deblock=1:0:0 / analyse=0x1:0x111 / me=hex / subme=6 / psy_rd=1.0:0.0 / mixed_ref=0 / me_range=16 / chroma_me=1 / trellis=0 / 8x8dct=0 / cqm=0 / deadzone=21,11 / chroma_qp_offset=-2 / threads=1 / nr=0 / decimate=1 / mbaff=0 / bframes=4 / b_pyramid=0 / b_adapt=1 / b_bias=0 / direct=3 / wpredb=0 / keyint=250 / keyint_min=25 / scenecut=40 / rc=crf / crf=22.0 / qcomp=0.60 / qpmin=10 / qpmax=51 / qpstep=4 / ip_ratio=1.40 / pb_ratio=1.30 / aq=1:1.00
Encoded date : UTC 2009-10-26 11:49:12
Tagged date : UTC 2009-10-26 12:14:03

Audio
ID : 2
Format : AAC
Format/Info : Advanced Audio Codec
Format profile : LC
Codec ID : 40
Duration : 31mn 13s
Duration_LastFrame : -16ms
Bit rate mode : Variable
Bit rate : 265 Kbps
Maximum bit rate : 352 Kbps
Channel(s) : 2 channels
Channel positions : Front: L R
Sampling rate : 48.0 KHz
Compression mode : Lossy
Stream size : 59.3 MiB (32%)
Encoded date : UTC 2009-10-27 12:12:45
Tagged date : UTC 2009-10-26 12:14:03

Nami

post 05-Сен-2010 23:59

Quote

Последний март / Suteki na Shota Days 2 ~ Saigo no Sangatsu ~

pic
Жанр: яой, школа, драма
Количество серий: 1 (32 мин.)
Время выхода: 19.12.2009
Автор оригинала: Тсукумо Го

Качество видео: DVDRip
Размер кадра: 512*288
Битрейт: 602 кб/с
Наличие Хардсабов: Нет
Перевод: Субтитры

Описание: Нии - апатичный ученик средней школы, который не задумывается о своем будущем и не ставит перед собой никаких целей. Эта беспросветная серая жизнь его вполне устраивала, пока однажды, он не понял, что его влечет к своему однокласснику..
Личная оценка: 8 - мне понравилось
MediaInfo
General
Format : MPEG-4
Format profile : Base Media
Codec ID : isom
File size : 136 MiB
Duration : 31mn 30s
Overall bit rate : 602 Kbps
Encoded date : UTC 2010-04-10 05:37:20
Tagged date : UTC 2010-04-10 05:37:20

Video
ID : 1
Format : AVC
Format/Info : Advanced Video Codec
Format profile : High@L5.1
Format settings, CABAC : Yes
Format settings, ReFrames : 2 frames
Codec ID : avc1
Codec ID/Info : Advanced Video Coding
Duration : 31mn 30s
Bit rate mode : Variable
Bit rate : 500 Kbps
Maximum bit rate : 2 082 Kbps
Width : 512 pixels
Height : 288 pixels
Display aspect ratio : 16/9
Frame rate mode : Constant
Frame rate : 29.970 fps
Resolution : 24 bits
Colorimetry : 4:2:0
Scan type : Progressive
Bits/(Pixel*Frame) : 0.113
Stream size : 113 MiB (83%)
Writing library : x264 core 65 r0+1112 09ce335
Encoding settings : cabac=1 / ref=2 / deblock=1:0:0 / analyse=0x3:0x133 / me=umh / subme=9 / psy_rd=1.0:0.0 / mixed_ref=0 / me_range=16 / chroma_me=1 / trellis=1 / 8x8dct=1 / cqm=0 / deadzone=21,11 / chroma_qp_offset=-2 / threads=1 / nr=0 / decimate=1 / mbaff=0 / bframes=2 / b_pyramid=0 / b_adapt=1 / b_bias=0 / direct=3 / wpredb=1 / keyint=250 / keyint_min=25 / scenecut=40 / rc=2pass / bitrate=500 / ratetol=1.0 / qcomp=0.60 / qpmin=10 / qpmax=51 / qpstep=4 / cplxblur=20.0 / qblur=0.5 / ip_ratio=1.40 / pb_ratio=1.30 / aq=1:1.00
Encoded date : UTC 2010-04-10 05:37:20
Tagged date : UTC 2010-04-10 05:37:33

Audio
ID : 2
Format : AAC
Format/Info : Advanced Audio Codec
Format version : Version 4
Format profile : LC
Format settings, SBR : No
Codec ID : 40
Duration : 31mn 30s
Bit rate mode : Variable
Bit rate : 98.3 Kbps
Maximum bit rate : 172 Kbps
Channel(s) : 2 channels
Channel positions : L R
Sampling rate : 48.0 KHz
Resolution : 16 bits
Stream size : 22.2 MiB (16%)
Encoded date : UTC 2010-04-10 05:37:33
Tagged date : UTC 2010-04-10 05:37:33
Скриншоты
pic

pic

pic

pic

pic

Nami

post 02-Сен-2010 20:28

Quote

Yebisu Celebrities

pic
Жанр: сёнэн-ай
Количество серий: 1 (45 мин.)
Время выхода: 28.05.2010
Автор оригинала: Фува Синри

Качество видео: DVDRip
Размер кадра: 640*480
Битрейт: 804 кб/с
Рипгруппа: [aarinfantasy]
Наличие Хардсабов: Да

Описание: Харука Фудзинами недавно устроился работать в контору Эбису Графикс. В первый же день, его босс-тиран Дайдзё вызывает у него стойкую неприязнь и ненависть, да и есть за что - всю грязную и тяжелую работу босс скидывает на него, сопровождая язвительными комментариями в его адрес. Ничего необычного, но Харука замечает, что чем больше босс на нём отыгрывается, тем симпатичнее кажется в его глазах... Сможеть ли Харука противостоять Дайдзё и показать себя, или же высокий темноволосый незнакомец сможеть овладеть его душой и телом?(c)

Личная оценка: 8 - мне понравилось
MediaInfo
General
Format : AVI
Format/Info : Audio Video Interleave
File size : 307 MiB
Duration : 45mn 31s
Overall bit rate : 943 Kbps
Writing application : VirtualDubMod 1.5.10.1 (build 2366/release)
Writing library : VirtualDubMod build 2366/release

Video
Format : MPEG-4 Visual
Format profile : Streaming Video@L1
Format settings, BVOP : Yes
Format settings, QPel : No
Format settings, GMC : No warppoints
Format settings, Matrix : Default (H.263)
Muxing mode : Packed bitstream
Codec ID : XVID
Codec ID/Hint : XviD
Duration : 45mn 31s
Bit rate : 804 Kbps
Width : 640 pixels
Height : 480 pixels
Display aspect ratio : 4/3
Frame rate : 29.970 fps
Resolution : 24 bits
Colorimetry : 4:2:0
Scan type : Progressive
Bits/(Pixel*Frame) : 0.087
Stream size : 262 MiB (85%)
Writing library : XviD 1.2.0.dev47 (UTC 2006-11-01)

Audio
Format : MPEG Audio
Format version : Version 1
Format profile : Layer 3
Codec ID : 55
Codec ID/Hint : MP3
Duration : 45mn 31s
Bit rate mode : Constant
Bit rate : 128 Kbps
Channel(s) : 2 channels
Sampling rate : 44.1 KHz
Resolution : 16 bits
Stream size : 41.7 MiB (14%)
Alignment : Split accross interleaves
Interleave, duration : 33 ms (1.00 video frame)
Interleave, preload duration : 500 ms
Скриншоты
pic

pic

pic

pic

pic

Hesoka

post 30-Июн-2010 05:09

Quote

Тиран, который влюбился / Koisuru Boukun / The Tyrant Falls In Love / 恋する暴君

pic
Жанр: сёнэн-ай, комедия, романтика
Количество серий: OAV (2 эп.), 30 мин
Время выхода: 25.06.10
Режиссер: Кавакубо Кэйдзи / Kawakubo Keiji
Качество видео: DVDRip
Размер кадра: 720 х 424
Битрейт: 192 кб/с
Наличие Хардсабов: Да
Снято по манге: Koisuru Boukun
Автор оригинала: Таканага Хинако Razz

Описание: "Интересно, имеет ли любовь срок годности?" - думает про себя студент сельскохозяйственного университета Тецухиро Моринага. Думает так потому, что уже пять лет безнадежно влюблен в своего сенпая - Соичи Тацуми. И думает так неспроста... поскольку надежды на хоть какие-то отношения быть не может, ибо угораздило Моринагу влюбиться в ярого гомофоба. Соичи Тацуми - тиран и деспот. Грубит, курит, пинает своего кохая по поводу и без, не брезгуя затрещинами, и строит планы взорвать Америку за то, что там узаконили однополые браки... Что однако не мешает Моринаге его любить. Надежды нет?... А если судьба, в лице друга-бармена, подбросит ему шанс?.. И один-единственный раз все сложится именно так, как Моринаге того хотелось... Воспользуется ли он своим шансом, и каковы будут последствия?..
Описание с сайта nakama.
Личная оценка: 10 - всем советую Confused
Скриншоты
pic

pic

pic

Hesoka

post 05-Май-2010 16:12

Quote

Kachou no Koi / Section Chief's Love / 課長の恋

pic
Жанр: сёнэн-ай, комедия
Количество серий: OAV (1 эп.), 30 мин.
Время выхода: 26.03.2010
Режиссер: Автор оригинала: Кюсю Дандзи
Качество видео: DVDRip
Размер кадра: 640х360
Битрейт: 128 кб/с
Наличие Хардсабов: Да

Описание: Это история 33-летнего офисного клерка Казухико Одакара, который неожиданно обнаруживает, что он – гей. Понял он это при внезапной встрече с новичком Харадой.

Личная оценка: 0 - не смотрела
Скриншоты
pic

pic

pic

Hesoka

post 30-Мар-2010 20:06

Quote

Sex Pistols OVA / -セックスピストルズ-

pic
Жанр: сёнэн-ай
Количество серий: OAV (2 эп.); На раздаче 1 OVA
Время выхода: c 26.03.2010 по 25.06.2010
Режиссер: Автор оригинала: Котобуки Тарако
Размер кадра: 854 x 480
Битрейт: 1536 кб/с
Наличие Хардсабов: Да

Описание: История манги рассказывает о группе школьников, который являются прототипами нового человека, созданного не как обычные люди от обезьяны, а от других видов животных – леопардов, медведей.

Личная оценка: 6 - забавно
Скриншоты
pic

pic

pic

Nami

post 02-Дек-2009 23:53

Quote

Эй, президент школьного совета / Seitokaichou ni Chuukoku

pic
Жанр: сёнэн-ай, школа
Количество серий: 2
Время выхода: 27.11.2009 - 30.04.2010
Студия: PrimeTime
Качество видео: DVDRip
Размер кадра: 704*396
Наличие Хардсабов: Да (English)
Описание: История про школьников: вице-президент студсовета влюбляется по уши в президента студсовета, при этом вице-президент, как водится удерживает главу от необдуманных действий и резких движений... При этом сам президент не может понять, почему он прислушивается к этому простодушному чуду, своему заместителю? Ведь он умнее ,серьезней и опытней...
MediaInfo
Format : AVI
Format/Info : Audio Video Interleave
File size : 192 MiB
Duration : 28mn 29s
Overall bit rate : 944 Kbps
Writing application : VirtualDubMod 1.5.10.1 (build 2366/release)
Writing library : VirtualDubMod build 2366/release

Video
Format : MPEG-4 Visual
Format profile : Streaming Video@L1
Format settings, BVOP : Yes
Format settings, QPel : No
Format settings, GMC : No warppoints
Format settings, Matrix : Default (H.263)
Muxing mode : Packed bitstream
Codec ID : XVID
Codec ID/Hint : XviD
Duration : 28mn 29s
Bit rate : 806 Kbps
Width : 704 pixels
Height : 396 pixels
Display aspect ratio : 16/9
Frame rate : 23.976 fps
Resolution : 24 bits
Colorimetry : 4:2:0
Scan type : Progressive
Bits/(Pixel*Frame) : 0.121
Stream size : 164 MiB (85%)
Writing library : XviD 1.2.0.dev47 (UTC 2006-11-01)

Audio
Format : MPEG Audio
Format version : Version 1
Format profile : Layer 3
Codec ID : 55
Codec ID/Hint : MP3
Duration : 28mn 29s
Bit rate mode : Constant
Bit rate : 128 Kbps
Channel(s) : 2 channels
Sampling rate : 48.0 KHz
Resolution : 16 bits
Stream size : 26.1 MiB (14%)
Alignment : Split accross interleaves
Interleave, duration : 42 ms (1.00 video frame)
Interleave, preload duration : 500 ms
Скриншоты
pic
pic
pic
pic
pic

Aoi_Sora

post 26-Ноя-2009 20:13

Quote

Hyakujitsu no Bara 2 / Maiden Rose OAV2

pic
Жанр: яой, драма
Количество серий: OAV (2 эп., это второй), 30 мин.
Время выхода: 2009
Режиссер: Такаги Хидэфуми
Видео: XVID 704x396 23.98fps 804Kbps (eng hardsub)
Аудио: MPEG Audio Layer 3 48000Hz stereo 128Kbps
Рипгруппа: [aarinfantasy]
Описание: Вымышленные государства – Еврота и Дейден – погружены в самую настоящую войну. Передовая разрыта окопами, гибнут солдаты, ведутся изнурительные бои.

Капитан Клаус фон Вольфштадт – иностранный легионер, и присягал он не державе, а лично командующему Таки Рейзену. Клаус – «пес» генерала, его рыцарь и бессменный телохранитель. Многие не любят его за дерзость, удачливость, высокомерие, а больше всего – за близость к господину Таки. Иногда кажется, что и сам командующий недолюбливает своего преданного вассала. Но солдаты и офицеры не знают, что происходит за запертыми дверьми генеральских покоев...

© Анастасия Розанова, World Art


Личная оценка: 8 - мне понравилось
Скриншоты
pic

pic

pic

Windarya

post 30-Сен-2009 21:34

Quote

Студсовет частной школы Арайсо / Araiso Private High School Student Council Executive Committee

Жанр: комедия, боевые искусства, фэнтези, сёнэн-ай
Время выхода: 2002
Режиссер: Минэкура Кадзуя (Minekura Kazuya)
Студия: Nippon Animation
Качество видео: VHSRip
Размер кадра: 640 x 480
Наличие Хардсабов: Да

(серии VHS качества, с английским дубляжом, причем обе части являются частями 2ой ОВА, выложила по просьбе)

Вот тут нормальная раздача: https://forum.touki.ru/viewtopic.php?t=5253

Nami

post 30-Июл-2009 23:58

Quote

Чистая романтика (второй сезон) / Junjou Romantica 2

pic
Жанр: романтика, комедия, сёнэн-ай
Количество серий: 12
Время выхода: c 12.10.2008 по 28.12.2008
Режиссер: Кон Тиаки
Студия: Studio DEEN
Качество видео: DVDRip
Рипгруппа: DmzJ
Наличие Хардсабов: Нет
Перевод: Субтитры
Описание: Мисаки Такахаси – первокурсник экономического факультета Токийского университета. Его старший брат, который после смерти родителей растил Мисаки, получил работу в Осаке и женился, так что Такахаси-младшему нужно привыкать жить одному... или с кем-то. Ну, например, со своим бывшим репетиром, знаменитым писателем Акихико Усами. В процессе подготовки к поступлению Мисаки и Усами-сан до того (гм, будем называть вещи своими именами!) сблизились, что идея жить одним домом уже никому не кажется странным.

Хотя Мисаки по-прежнему мало что знает о своем любовнике: отчего, например, тот не любит публичных выступлений и больших приемов? Как Усами ладит со своей семьей? Ревнив ли он? Любит ли чайные розы? © http://www.world-art.ru/animation/animation.php?id=7008
MediaInfo
Общее #0
Формат : Matroska
Размер файла : 237 Мегабит
Длительность : 23мин
Битрейт : 1395 Кбит/сек
Кино : 純情ロマンチカ2 DVDRip Ep 01 from JP@DmzJ
Дата кодирования : UTC 2009-02-06 14:50:56
Программа : mkvmerge v2.4.2 ('Oh My God') built on Jan 18 2009 17:30:28
Программа : libebml v0.7.7 + libmatroska v0.8.1

Видео #0
Кодек : MPEG-4 AVC
Кодек/Info : MPEG4 ISO advanced profile
Длительность : 23мин
Ширина : 864 пикс.
Высота : 480 пикс.
Соотношение : 16/9
Частота кадров : 23.976 кадр/сек

Аудио #0
Кодек : AC3
Кодек/Info : Dolby AC3
Канал(ы) : 2 каналы
Частота : 48 КГц

Текст #0
Кодек : ASS
Кодек/Info : Advanced Sub Station Alpha
Заголовок : DmzJ Sub
Язык : китайский
Личная оценка: 10 - всем советую
Скриншоты
pic

pic

pic

pic

pic

pic

Nami

post 30-Июл-2009 23:29

Quote

Чистая романтика / Junjou Romantica

pic
Жанр: романтика, комедия, драма, сёнэн-ай
Количество серий: 12
Время выхода: c 11.04.2008 по 27.06.2008
Режиссер: Кон Тиаки
Студия: Studio DEEN
Качество видео: DVDRip
Рипгруппа: DMS
Наличие Хардсабов: Нет
Перевод: Субтитры
Описание: Юный Такахаси Мисаки хочет поступить в престижный университет. Хочет, но не может, т.к. слишком плохо учится. Поэтому его старший брат, Такахиро, договаривается со своим другом, известным писателем Усами Акихико, чтобы тот позанимался с двоечником Мисаки. Пока всё звучит вполне прилично, не так ли?

А если добавить, что знакомство Мисаки с его будущим репетитором происходит, когда он застает Усами, пылко обнимающего его брата в прихожей?.. И что первое, на что он натыкается в писательской квартире, это – томик рассказов, где любовника главного героя зовут именем брата? Становится интересней, не правда ли?.. А если уточнить, что на первом же занятии Мисаки заходит в спальню Усами и остается там несколько дольше, чем предполагал (и намеревался)?
MediaInfo
Общее #0
Формат : Matroska
Размер файла : 123 Мегабит
Длительность : 23мин
Битрейт : 723 Кбит/сек
Кино : Junjou Romantica DVD Vol.01 Episode 01
Дата кодирования : UTC 2008-07-31 06:26:29
Программа : mkvmerge v2.2.0 ('Turn It On Again') built on Mar 4 2008 12:58:26
Программа : libebml v0.7.7 + libmatroska v0.8.1

Видео #0
Кодек : MPEG-4 AVC
Кодек/Info : MPEG4 ISO advanced profile
Длительность : 23мин
Ширина : 864 пикс.
Высота : 480 пикс.
Соотношение : 16/9
Частота кадров : 23.976 кадр/сек
Заголовок : 日本語
Язык : японский

Аудио #0
Кодек : Vorbis
Режим расчёта битрей : VBR
Канал(ы) : 2 каналы
Частота : 48 КГц
Заголовок : 日本語
Язык : японский

Текст #0
Кодек : ASS
Кодек/Info : Advanced Sub Station Alpha
Заголовок : 简体中文
Язык : китайский
Личная оценка: 10 - всем советую
Скриншоты
pic

pic

pic

pic

Teana

post 15-Июн-2009 10:33

Quote

Потомки Тьмы / Дети Тьмы / Yami no Matsuei / Descendants of Darkness [DVDRIP, Драма, мистика, сенен-ай, комедия] (13)

pic
Жанр: Драма, мистика, сенен-ай, комедия
Количество серий: 13
Время выхода: 2000
Режиссер: Токита Хироко
Студия: J.C. Staff
Качество видео: DVDRip
Размер кадра: 640 х 480
Битрейт: 29,97 кб/с, DivX 3 1558Kbps
Аудио: MPEG Audio Layer 3 48000Hz stereo 256Kbps
Наличие Хардсабов: Нет
Перевод: Субтитры
Описание: Задача организации Джу-О-Чо - доставлять в Мейфу, Страну Мертвых, души умерших людей. Но что делать, если души не хотят уходить? Или не могут? Правильно, звать на помощь мастеров своего дела - Шинигами, богов смерти. Но простая на первый взгляд работа вовсе не так проста. В события оказываются вовлечены многие люди и не только, а старые секреты выплывают наружу...
Yami no Matsuei сложно отнести к какому-либо одному жанру. Там можно увидеть трогательные и сложные взаимоотношения персонажей, невинные, но многообещающие. С напряжением ждать развязки тяжелых психологических драм, не одной, а совершенно разных - ведь подоплека у каждого своя... Следить за лихо закрученной детективной историей, смеяться над забавными мелочами... Мое мнение - понравится любителям разных жанров.
Личная оценка: 10 - всем советую
Скриншоты
pic

pic

pic

Dolsu

post 08-Июн-2009 05:20

Quote

Hyakujitsu no Bara / Maiden Rose

pic
Жанр: yaoi

Количество серий: OAV (2 эп.)

Время выхода: 2009

Режиссер: Инария Фусаносукэ

Видео: XVID 704x396 23.98fps 927кб/сек

Аудио: MPEG Audio Layer 3 48000Hz stereo 128Kbps

Наличие Хардсабов: да(eng)

Описание:
  "Maiden Rose" мангаки Fusanosuke Inariya повествует о нелегких отношениях командира подразделения "Rosen Maiden" Таки Pайзена и одного из самых преданных его солдат, Клауса, по прозвищу "Бешеный пес".


Личная оценка: 8 - мне понравилось
Скриншоты
pic

pic

pic

Predtecha

post 02-Июн-2009 21:42

Quote

Чистая Романтика (1-4) озвучка Lisek / Junjou Romantica

pic
Жанр: романтика, комедия, драма, сёнэн-ай
Количество серий: (4 эп.), 25 мин.
Время выхода: 2008
Режиссер: Кон Тиаки
Студия: Studio DEEN

Качество видео: DVDRip
Размер кадра: 864 x 480
Битрейт: 650 кб/с
Наличие Хардсабов: Нет
Перевод: Одноголосный

Описание: Юный Такахаси Мисаки хочет поступить в престижный университет. Хочет, но не может, т.к. слишком плохо учится. Поэтому его старший брат, Такахиро, договаривается со своим другом, известным писателем Усами Акихико, чтобы тот позанимался с двоечником Мисаки. Пока всё звучит вполне прилично, не так ли?
А если добавить, что знакомство Мисаки с его будущим репетитором происходит, когда он застает Усами, пылко обнимающего его. брата в прихожей?.. И что первое, на что он натыкается в писательской квартире, это – томик рассказов, где любовника главного героя зовут именем брата? Становится интересней, не правда ли?.. А если уточнить, что на первом же занятии Мисаки заходит в спальню Усами и остается там несколько дольше, чем предполагал (и намеревался)?..


Примечание: Отсутствует цензура. Озвучивает Lisek
Скриншоты
pic
pic
pic
pic
pic
Личная оценка: 11 - фанатею Razz

Hesoka

post 22-Мар-2009 20:40

Quote

После школы в учительской / After school in the Teachers Lounge / Houkago no Shokuinshitsu

pic
Жанр: сёнен-ай, школа, драма, романтика
Количество серий: 2 эп., 1х30 мин, 1х25 мин
Время выхода: c 12.08.1994 по 29.09.1995
Качество видео: TVRip
Размер кадра: 24 бит, формат экрана 4:3
Битрейт: 128 кбит/сек
Наличие Хардсабов: Да
Перевод: Субтитры

Описание: Наивная история взаимоотношений двух учителей средней школы. Учитывая год выпуска, вас ожидает жуткая графика с треугольными лицами, косоглазием и непропорциональными фигурами героев. Хотя во второй части с лицами уже получше. Порадуют голоса сейю и музыка. Сие можно даже не смотреть, а только слушать и релаксировать.

Личная оценка: 0 - не смотрел
Скриншоты
pic

pic

pic

Gadik

post 23-Фев-2009 18:37

Quote

Священные звери OVA / Saint Beast: Ikusen no Hiru to Yoru Hen

pic
Жанр: приключения, фэнтези, сенен-ай
Количество серий: 2
Время выхода: 2005
Режиссер: Сакой Масаюки
Студия: pic
Размер кадра: 640x480
Битрейт: 948 кб/с
Рипгруппа: [aarinfantasy]
Наличие Хардсабов: Да
Перевод: Субтитры
Описание: Ответвление сюжета
Личная оценка: 8 - мне понравилось
Скриншоты
pic

pic

pic

Gadik

post 23-Фев-2009 18:14

Quote

Священные звери - 2 / Saint Beast: Angel Chronicles

pic
Жанр: приключения, фэнтези, сёнэн-ай
Количество серий: 13
Время выхода: 2007
Режиссер: Симадзаки Нанако
Студия: pic
Размер кадра: 640x360
Битрейт: 943 кб/с
Рипгруппа: [aarinfantasy]
Наличие Хардсабов: Да
Перевод: Субтитры
Описание: Зевс – повелитель рая и владыка ангелов – решил ввести сословия на небесах и поделил ангелов на высших, средних и низших. Разумеется, это вызвало раздоры в ангельских рядах: отмеченные высоким рангом стали чваниться, а объявленные низшими – завидовать. Рэй, Го, Гай, Син, Юда и Рюка противостоят смуте и борются с сомнениями в собственных душах – ведь Зевс-сама, пославший своим подданным испытания, не может быть неправ!..
Предыстория первого сериала: история об избрании Шести Священных зверей.
Личная оценка: 8 - мне понравилось
Скриншоты
pic

pic

pic
 

Текущее время: 24-Июл 19:40

Часовой пояс: GMT + 3

[  Execution time: 0.282 sec  |  MySQL: 0.450 sec (160%) in 7 queries  |  Mem: 160.15 KB / 1.08 MB / 897.43 KB  |  Load: 2.1 1.9 2  ]