Loading...
Error

Когда плачут цикады / Higurashi no Naku Koro Ni [DVDRIP, Comedy, Mystery, Drama, Horror, Psychological, Thriller] Exiled-Destiny (26)

Ответить на тему
Показать список качающих/скачавших
Размер: 8.63 GB
Зарегистрирован: 10 лет
Скачан: 16 раз

Сидов:

Имя UL
Ratio
Передано Скорость Провайдер
up down up down
batyrmastyr 0 - - - - Дом.ru
показаны данные только за текущую сессию
 
     
 
 
Автор Сообщение

Ditri3X

Стаж: 11 лет

Сообщений: 193

Откуда: Man Home

Провайдер: ВТ (IXNN)

Пол: Не определилось

Он-лайн: Нет

Карма: 0.00

Когда плачут цикады / Higurashi no Naku Koro Ni [DVDRIP, Comedy, Mystery, Drama, Horror, Psychological, Thriller] Exiled-Destiny (26)

pic
Жанр: Comedy, Mystery, Drama, Horror, Psychological, Thriller
Количество серий: 26
Время выхода: 2006
Качество видео: DVDRip
Рипгруппа: Exiled-Destiny
Наличие Хардсабов: Нет
Перевод: Субтитры (Английский софтсаб), Английский дубляж
Описание: В том, что в тихом омуте водятся черти, юному Кэйити пришлось убедиться на своём собственном опыте. Переехав с родителями из города в живописную деревушку Хинамидзаву и подружившись в маленькой местной школе с очаровательными одноклассницами, он даже не подозревал, насколько обманчиво его представление об этом безмятежном крае и его обитателях. Но, как позднее выяснил Кэйити, за фасадом деревенской идиллии скрывается тёмная история зверских убийств и бесследных исчезновений, а под покровом благостной тиши действуют какие-то ужасные силы. Постепенно страшная тайна, скрытая в сельской глуши, стала приоткрываться перед его изумлёнными глазами...
MediaInfo
General
Complete name : M:\[Exiled-Destiny] When They Cry Higurashi\[Exiled-Destiny]_When_They_Cry_Higurashi_Ep01_(6B18F06D).mkv
Format : Matroska
File size : 340 MiB
Duration : 23mn 42s
Overall bit rate : 2 005 Kbps
Encoded date : UTC 2007-06-07 19:43:24
Writing application : mkvmerge v2.0.0 ('After The Rain Has Fallen') built on Jan 13 2007 19:58:56
Writing library : libebml v0.7.7 + libmatroska v0.8.0

Video
ID : 1
Format : AVC
Format/Info : Advanced Video Codec
Format profile : High@L5.1
Format settings, CABAC : Yes
Format settings, ReFrames : 8 frames
Muxing mode : Container profile=Unknown@5.1
Codec ID : V_MPEG4/ISO/AVC
Duration : 23mn 40s
Bit rate : 1 517 Kbps
Nominal bit rate : 1 930 Kbps
Width : 720 pixels
Height : 480 pixels
Display aspect ratio : 16/9
Frame rate : 29.970 fps
Standard : NTSC
Resolution : 24 bits
Colorimetry : 4:2:0
Scan type : Progressive
Bits/(Pixel*Frame) : 0.147
Stream size : 257 MiB (76%)
Writing library : x264 core 54 svn-635M
Encoding settings : cabac=1 / ref=5 / deblock=1:-1:-1 / analyse=0x3:0x133 / me=umh / subme=7 / brdo=1 / mixed_ref=1 / me_range=16 / chroma_me=1 / trellis=1 / 8x8dct=1 / cqm=0 / deadzone=21,11 / chroma_qp_offset=0 / threads=1 / nr=0 / decimate=0 / mbaff=0 / bframes=2 / b_pyramid=1 / b_adapt=1 / b_bias=0 / direct=3 / wpredb=1 / bime=1 / keyint=250 / keyint_min=25 / scenecut=40 / rc=2pass / bitrate=1930 / ratetol=1.0 / rceq='blurCplx^(1-qComp)' / qcomp=0.60 / qpmin=10 / qpmax=51 / qpstep=4 / cplxblur=20.0 / qblur=0.5 / ip_ratio=1.40 / pb_ratio=1.30

Audio #1
ID : 2
Format : AC-3
Format/Info : Audio Coding 3
Codec ID : A_AC3
Duration : 23mn 42s
Bit rate mode : Constant
Bit rate : 224 Kbps
Channel(s) : 2 channels
Channel positions : L R
Sampling rate : 48.0 KHz
Stream size : 38.0 MiB (11%)
Language : English

Audio #2
ID : 3
Format : AC-3
Format/Info : Audio Coding 3
Codec ID : A_AC3
Duration : 23mn 42s
Bit rate mode : Constant
Bit rate : 224 Kbps
Channel(s) : 2 channels
Channel positions : L R
Sampling rate : 48.0 KHz
Stream size : 38.0 MiB (11%)
Language : Japanese

Text #1
ID : 4
Format : UTF-8
Codec ID : S_TEXT/UTF8
Codec ID/Info : UTF-8 Plain Text
Language : English

Text #2
ID : 5
Format : UTF-8
Codec ID : S_TEXT/UTF8
Codec ID/Info : UTF-8 Plain Text
Language : Japanese

Text #3
ID : 6
Format : VobSub
Codec ID : S_VOBSUB
Codec ID/Info : The same subtitle format used on DVDs
Language : English

Text #4
ID : 7
Format : VobSub
Codec ID : S_VOBSUB
Codec ID/Info : The same subtitle format used on DVDs
Language : Japanese
Скриншоты
pic
pic
pic
pic
pic
pic
pic
pic

Внимание! Вы не авторизировались - скачанный по ссылкам ниже торрент не будет учитываться в вашем личном профиле.

[Exiled-Destiny] When They Cry Higurashi.torrent
Трекер: Зарегистрирован

Торрент

Зарегистрирован: 2009-07-20 10:16
Скачан: 16 раз
Размер: 8.63 GB
Оценка: 4.8 (Голосов: 5)
Поблагодарили: 3   (список)
 
Список файлов
# \ Папка [Exiled-Destiny] When They Cry Higurashi Размер
1 [Exiled-Destiny]_When_They_Cry_Higurashi_Ep14_(33F31419).mkv 341 MB
2 [Exiled-Destiny]_When_They_Cry_Higurashi_Ep10_(2BB2A3E7).mkv 341 MB
3 [Exiled-Destiny]_When_They_Cry_Higurashi_Ep06_(0D7A822A).mkv 341 MB
4 [Exiled-Destiny]_When_They_Cry_Higurashi_Ep03_(919D2375).mkv 341 MB
5 [Exiled-Destiny]_When_They_Cry_Higurashi_Ep12_(EBE9359C).mkv 341 MB
6 [Exiled-Destiny]_When_They_Cry_Higurashi_Ep13_(29267882).mkv 341 MB
7 [Exiled-Destiny]_When_They_Cry_Higurashi_Ep11_(4F9DFC56).mkv 340 MB
8 [Exiled-Destiny]_When_They_Cry_Higurashi_Ep08_(750168BC).mkv 340 MB
9 [Exiled-Destiny]_When_They_Cry_Higurashi_Ep09_(7025CDE2).mkv 340 MB
10 [Exiled-Destiny]_When_They_Cry_Higurashi_Ep05_(DF1572A9).mkv 340 MB
11 [Exiled-Destiny]_When_They_Cry_Higurashi_Ep07_(421161E9).mkv 340 MB
12 [Exiled-Destiny]_When_They_Cry_Higurashi_Ep02_(97212B26).mkv 340 MB
13 [Exiled-Destiny]_When_They_Cry_Higurashi_Ep04_(AE871EDF).mkv 340 MB
14 [Exiled-Destiny]_When_They_Cry_Higurashi_Ep01_(6B18F06D).mkv 340 MB
15 [Exiled-Destiny]_When_They_Cry_Higurashi_Ep24_(2831E745).mkv 340 MB
16 [Exiled-Destiny]_When_They_Cry_Higurashi_Ep25_(FB1552EA).mkv 340 MB
17 [Exiled-Destiny]_When_They_Cry_Higurashi_Ep19_(C16F544B).mkv 340 MB
18 [Exiled-Destiny]_When_They_Cry_Higurashi_Ep17_(66BAB1A1).mkv 340 MB
19 [Exiled-Destiny]_When_They_Cry_Higurashi_Ep21_(048C40AE).mkv 340 MB
20 [Exiled-Destiny]_When_They_Cry_Higurashi_Ep23_(25793D04).mkv 340 MB
21 [Exiled-Destiny]_When_They_Cry_Higurashi_Ep16_(A343D0D2).mkv 340 MB
22 [Exiled-Destiny]_When_They_Cry_Higurashi_Ep22_(1F0AEF0F).mkv 340 MB
23 [Exiled-Destiny]_When_They_Cry_Higurashi_Ep20_(C940FB75).mkv 339 MB
24 [Exiled-Destiny]_When_They_Cry_Higurashi_Ep18_(8CD8B1C2).mkv 339 MB
25 [Exiled-Destiny]_When_They_Cry_Higurashi_Ep26_(F87233B3).mkv 339 MB
26 [Exiled-Destiny]_When_They_Cry_Higurashi_Ep15_(F6E5639D).mkv 339 MB
Profile PM

batyrmastyr

Стаж: 11 лет

Сообщений: 6512

Откуда: Sekai

Провайдер: Не определен

Пол: Otoko (M)

Он-лайн: Нет

Карма: +33.87

post 16-Апр-2010 19:34 (спустя 8 месяцев 27 дней)
Хигураши
Рекомендуемый порядок просмотра:
1) Первый сезон (Higurashi no Naku Koro ni): DVDrip
1.а) Глава об убийстве кошки (OVA бонус к первому сезону): DVDrip
2) Второй сезон (Higurashi no Naku Koro ni Kai): DVDrip
3) Третий сезон (Higurashi no Naku Koro ni Rei): BDRip 1920*1080 или BD_ReRip 848*480.
4) Четвёртый сезон (Higurashi no Naku Koro ni Kira): BDRip 1920*1080
Другое:     ОСТы,   Higurashi Daybreak Portable (игра, PSP) ,   Обсуждение

_________________
pic
я несу глупость во имя бака-тим
Gundam Team
Yuri TEAM
Термины
Profile PM
Показать сообщения:    
Ответить на тему

Текущее время: 13-Ноя 23:14

Часовой пояс: GMT + 3



Вы не можете начинать темы
Вы не можете отвечать на сообщения
Вы не можете редактировать свои сообщения
Вы не можете удалять свои сообщения
Вы не можете голосовать в опросах
Вы не можете прикреплять файлы к сообщениям
Вы можете скачивать файлы
[  Execution time: 0.071 sec  |  MySQL: 0.058 sec (82%) in 20 queries  |  Mem: 410.6 KB / 1.47 MB / 1.05 MB  |  Load: 0.5 0.9 0.9  ]