Loading...
Error

Dragon Half | Полудракон [1993, комедия, приключения, фэнтези, эччи] [DVDrip, 480p] [JPN+RUS, субтитры: eng+rus] (2)

Ответить на тему
Показать список качающих/скачавших
Размер: 980 MB
Зарегистрирован: 3 года 11 месяцев
Скачан: 5 раз

Полного источника не было: 2 месяца 7 дней

 
     
 
 
Автор Сообщение

Svoy

Стаж: 11 лет

Сообщений: 1141

Откуда: Russian Detroit

Провайдер: Не определен

Пол: Otoko (M)

Он-лайн: Нет

Карма: +0.02

Dragon Half
Полудракон
ドラゴンハーフ


Тип: OVA

pic
Жанры: комедия, приключения, фэнтези, эччи
Длительность: 2 эп. по 25 мин.
Время выхода: c 26.03.1993 по 28.05.1993
Страна: Япония

Режиссёр: Садамицу Синъя
Снято по: манге Dragon Half
Автор оригинала: Мита Рюсукэ

Описание:
У красной драконихи и у истребителя драконов родилась дочка-полудракон, откуда и возникло название этого аниме. Дочка выросла и влюбилась в известного певца... Дальнейшее уже нужно видеть и глупо рассказывать. Но так как это пародия, то аниме распадается на множество сцен стёба над разными жанрами.


В энциклопедиях:   AniDB  |  World Art  |  Википедия

  • Качество видео:
    • DVDrip
    Видео:
    • AVC, 624 * 480, 1 944 кбит/с
    Аудио:
    • Японская | AC-3, 2 канала, 224 кбит/с - оригинальная, в контейнере
    • Русская | AC-3, 2 канала, 160 кбит/с - одноголосая, в контейнере - Добрый сказочник
    • Русская | AC-3, 2 канала, 192 кбит/с - одноголосая, в контейнере - Сузаку
    Субтитры:


Скриншоты:
pic pic pic pic pic pic pic pic pic pic pic pic pic
Параметры видео | аудио:
General
Unique ID : 325047434430665019245547912008700888984 (0xF489DBD5D5FB96CD76C70B8BC85D8798)
Complete name : /Users/batyrmastyr/Desktop/_VID/Новая папка с объектами 2/Dragon Half OVA [DVDrip, 1993]/Dragon Half OVA 1 (JPN, RUS - Suzaku, DobrySkazochnik).mkv
Format : Matroska
Format version : Version 4 / Version 2
File size : 479 MiB
Duration : 26mn 2s
Overall bit rate : 2 571 Kbps
Encoded date : UTC 2015-07-11 20:11:29
Writing application : mkvmerge v8.0.0 ('Til The Day That I Die') 64bit
Writing library : Lavf55.12.0
DURATION : 00:26:02.671000000
NUMBER_OF_FRAMES : 59821
NUMBER_OF_BYTES : 31253420
_STATISTICS_WRITING_APP : mkvmerge v8.0.0 ('Til The Day That I Die') 64bit
_STATISTICS_WRITING_DATE_UTC : 2015-07-11 20:11:29
_STATISTICS_TAGS : BPS DURATION NUMBER_OF_FRAMES NUMBER_OF_BYTES

Video
ID : 1
Format : AVC
Format/Info : Advanced Video Codec
Format profile : High@L3.1
Format settings, CABAC : Yes
Format settings, ReFrames : 12 frames
Codec ID : V_MPEG4/ISO/AVC
Duration : 26mn 2s
Bit rate : 1 944 Kbps
Width : 624 pixels
Height : 480 pixels
Display aspect ratio : 4:3
Frame rate mode : Constant
Frame rate : 29.970 fps
Color space : YUV
Chroma subsampling : 4:2:0
Bit depth : 8 bits
Scan type : Progressive
Bits/(Pixel*Frame) : 0.217
Stream size : 362 MiB (76%)
Writing library : x264 core 142 r2479 dd79a61
Encoding settings : cabac=1 / ref=12 / deblock=1:0:0 / analyse=0x3:0x133 / me=umh / subme=10 / psy=1 / psy_rd=1.00:0.00 / mixed_ref=1 / me_range=24 / chroma_me=1 / trellis=2 / 8x8dct=1 / cqm=0 / deadzone=21,11 / fast_pskip=1 / chroma_qp_offset=-2 / threads=12 / lookahead_threads=1 / sliced_threads=0 / nr=0 / decimate=0 / interlaced=0 / bluray_compat=0 / constrained_intra=0 / bframes=2 / b_pyramid=2 / b_adapt=2 / b_bias=0 / direct=3 / weightb=1 / open_gop=0 / weightp=1 / keyint=300 / keyint_min=30 / scenecut=40 / intra_refresh=0 / rc_lookahead=40 / rc=crf / mbtree=1 / crf=15.0 / qcomp=0.60 / qpmin=7 / qpmax=20 / qpstep=4 / ip_ratio=1.40 / aq=1:1.00
Default : Yes
Forced : No
Color primaries : BT.601 NTSC
Transfer characteristics : BT.709
Matrix coefficients : BT.601
DURATION : 00:26:02.894000000
NUMBER_OF_FRAMES : 46840
NUMBER_OF_BYTES : 388729348
_STATISTICS_WRITING_APP : mkvmerge v8.0.0 ('Til The Day That I Die') 64bit
_STATISTICS_WRITING_DATE_UTC : 2015-07-11 20:11:29
_STATISTICS_TAGS : BPS DURATION NUMBER_OF_FRAMES NUMBER_OF_BYTES

Audio #1
ID : 2
Format : AC-3
Format/Info : Audio Coding 3
Mode extension : CM (complete main)
Format settings, Endianness : Big
Codec ID : A_AC3
Duration : 26mn 2s
Bit rate mode : Constant
Bit rate : 224 Kbps
Channel(s) : 2 channels
Channel positions : Front: L R
Sampling rate : 48.0 KHz
Bit depth : 16 bits
Compression mode : Lossy
Stream size : 41.7 MiB (9%)
Title : Stereo
Language : Japanese
Default : Yes
Forced : No
DURATION : 00:26:02.816000000
NUMBER_OF_FRAMES : 48838
NUMBER_OF_BYTES : 43758848
_STATISTICS_WRITING_APP : mkvmerge v8.0.0 ('Til The Day That I Die') 64bit
_STATISTICS_WRITING_DATE_UTC : 2015-07-11 20:11:29
_STATISTICS_TAGS : BPS DURATION NUMBER_OF_FRAMES NUMBER_OF_BYTES

Audio #2
ID : 3
Format : MPEG Audio
Format version : Version 1
Format profile : Layer 3
Codec ID : A_MPEG/L3
Codec ID/Hint : MP3
Duration : 26mn 2s
Bit rate mode : Constant
Bit rate : 160 Kbps
Channel(s) : 2 channels
Sampling rate : 44.1 KHz
Compression mode : Lossy
Stream size : 29.8 MiB (6%)
Title : ?????? ?????????
Language : Russian
Default : No
Forced : No
DURATION : 00:26:02.784000000
NUMBER_OF_FRAMES : 48837
NUMBER_OF_BYTES : 37506816
_STATISTICS_WRITING_APP : mkvmerge v8.0.0 ('Til The Day That I Die') 64bit
_STATISTICS_WRITING_DATE_UTC : 2015-07-11 20:11:29
_STATISTICS_TAGS : BPS DURATION NUMBER_OF_FRAMES NUMBER_OF_BYTES

Audio #3
ID : 4
Format : AC-3
Format/Info : Audio Coding 3
Mode extension : CM (complete main)
Format settings, Endianness : Big
Codec ID : A_AC3
Duration : 26mn 2s
Bit rate mode : Constant
Bit rate : 192 Kbps
Channel(s) : 2 channels
Channel positions : Front: L R
Sampling rate : 48.0 KHz
Bit depth : 16 bits
Compression mode : Lossy
Stream size : 35.8 MiB (7%)
Title : ??????
Language : English
Default : No
Forced : No
DURATION : 00:25:44.638000000
NUMBER_OF_FRAMES : 432
NUMBER_OF_BYTES : 494089
_STATISTICS_WRITING_APP : mkvmerge v8.0.0 ('Til The Day That I Die') 64bit
_STATISTICS_WRITING_DATE_UTC : 2015-07-11 20:11:29
_STATISTICS_TAGS : BPS DURATION NUMBER_OF_FRAMES NUMBER_OF_BYTES

Text
ID : 5
Format : VobSub
Muxing mode : zlib
Codec ID : S_VOBSUB
Codec ID/Info : The same subtitle format used on DVDs
Language : English
Default : No
Forced : No

Menu
00:00:00.000 : :Chapter 1
00:00:40.374 : :Chapter 2
00:08:10.690 : :Chapter 3
00:23:16.662 : :Chapter 4

Внимание! Вы не авторизировались - скачанный по ссылкам ниже торрент не будет учитываться в вашем личном профиле.

Dragon Half OVA [DVDrip, 1993].torrent
Трекер: Зарегистрирован

Торрент


Magnet

Зарегистрирован: 2015-07-11 23:55
Скачан: 5 раз
Размер: 980 MB
Оценка: 5 (Голосов: 6)
Поблагодарили: 7   (список)
 
Список файлов
# \ Папка Dragon Half OVA [DVDrip, 1993] Размер
1 comment.txt 1 KB
2 Dragon Half ED.mkv 39 MB
3 Dragon Half OVA 1 (JPN, RUS - Добрый сказочник, Сузаку).ass 44 KB
4 Dragon Half OVA 1 (JPN, RUS - Добрый сказочник, Сузаку).mkv 479 MB
5 Dragon Half OVA 2 (JPN, RUS - Добрый сказочник, Сузаку).ass 40 KB
6 Dragon Half OVA 2 (JPN, RUS - Добрый сказочник, Сузаку).mkv 462 MB
7 Шрифты / ArbatDi Bold.ttf 73 KB
8 Шрифты / arbatdi_.ttf 73 KB
9 Шрифты / blackletter_686_bt.ttf 87 KB
10 Шрифты / BOOKOS_0.TTF 157 KB
11 Шрифты / boyarsky_bolditalic.ttf 63 KB
12 Шрифты / Comic Sans MS Bold.ttf 117 KB

_________________
pic
[Автозавод-team] [Claymore-фан] [Советский Тачикома]
http://vkontakte.ru/svoy83
Profile PM

Mrak13

Стаж: 11 лет

Сообщений: 20

Откуда: РашенДуст

Провайдер: Неизвестен

Пол: Otoko (M)

Он-лайн: Нет

Карма: 0.00

post 08-Сен-2008 17:52 (спустя 4 дня)
Аниме зачетное!!!Надо будет с друзьями еще глянуть!!!Весчь!!!
Правда у мя один вопрос,это кто????
скрытый текст
pic
Profile PM

Svoy

Стаж: 11 лет

Сообщений: 1141

Откуда: Russian Detroit

Провайдер: Не определен

Пол: Otoko (M)

Он-лайн: Нет

Карма: +0.02

post 17-Сен-2008 19:28 (спустя 9 дней)
не, вроде нет. я и эту когда-то давным давно с фтп у Диайса слил, как уж она у него оказалась я хз, но не прогадал это точно.

_________________
pic
[Автозавод-team] [Claymore-фан] [Советский Тачикома]
http://vkontakte.ru/svoy83
Profile PM

batyrmastyr

Стаж: 11 лет

Сообщений: 6505

Откуда: Sekai

Провайдер: Не определен

Пол: Otoko (M)

Он-лайн: Нет

Карма: +33.73

post 12-Июл-2015 16:31 (спустя 6 лет 9 месяцев)
Забыл отписаться, что заменил на DVDrip с субтитрами и ещё одной озвучкой.

_________________
pic
я несу глупость во имя бака-тим
Gundam Team
Yuri TEAM
Термины
Profile PM
Показать сообщения:    
Ответить на тему

Текущее время: 25-Июн 06:31

Часовой пояс: GMT + 3



Вы не можете начинать темы
Вы не можете отвечать на сообщения
Вы не можете редактировать свои сообщения
Вы не можете удалять свои сообщения
Вы не можете голосовать в опросах
Вы не можете прикреплять файлы к сообщениям
Вы можете скачивать файлы
[  Execution time: 0.421 sec  |  MySQL: 0.557 sec (132%) in 21 queries  |  Mem: 410.48 KB / 1.49 MB / 1.07 MB  |  Load: 3.4 2.9 2.5  ]