Loading...
Error

"Eiyuu" Kaitai | «Герои» в отставке | 「英雄」解体 [2016, комедия] [BDrip, 720p] [JPN, субтитры: rus] (1)

Ответить на тему
Показать список качающих/скачавших
Размер: 460 MB
Зарегистрирован: 2 года 8 месяцев
Скачан: 0 раз
DL-List: Нет

Полного источника не было: 12 дней

 
     
 
 
Автор Сообщение

batyrmastyr

Стаж: 11 лет

Сообщений: 6512

Откуда: Sekai

Провайдер: Не определен

Пол: Otoko (M)

Он-лайн: Нет

Карма: +33.87

"Eiyuu" Kaitai
«Герои» в отставке
「英雄」解体


Тип: OVA

pic
Жанры: комедия
Длительность: 1 эп. по 30 мин.
Дата выхода: 2016-11-23
Страна: Япония

Режиссёр: Kuroyanagi Toshimasa
Студия: ZEXCS

Описание:
Очень милая овашка из цикла Kodansha BOX-AiR Newcomer of the Year Award - оригинальное ранобэ получило премию и, как следствие, аниме-адаптацию. Прошлой работой из цикла была "Закусочная медуза". На сей раз история рассказывает об агенстве, которое помогает героям из разных миров адаптироваться к обычной жизни среди людей. Очень приятное аниме с крайне жизнеутверждающим посылом. И анимация хорошая. © Алекс Миф


В энциклопедиях:   AniDB  |  ANN  |  World Art

  • Качество видео:
    • BDrip
    Видео:
    • AVC, 1280 * 720, 2 072 кбит/с
    Аудио:
    • Японская | Vorbis, 2 канала, 192 кбит/с - оригинальная, в контейнере
    Субтитры:
    • Русские - внешними файлами - [Ambiente | BBNG] - Матадор, Алекс Миф


Скриншоты:
pic pic pic pic pic pic pic pic pic pic pic pic
Параметры видео | аудио:
General
Unique ID : 67869810845339301438429273784634865785 (0x330F4006BAE9E267DBBD184936C47879)
Complete name : /Volumes/t/ongoing/Eiyuu Kaitai [2017, BDrip, 720p]/Eiyuu Kaitai (BDRip 1280x720 x264 Vorbis).mkv
Format : Matroska
Format version : Version 4 / Version 2
File size : 460 MiB
Duration : 27mn 49s
Overall bit rate mode : Variable
Overall bit rate : 2 310 Kbps
Movie name : Eiyuu Kaitai
Encoded date : UTC 2017-03-12 11:12:43
Writing application : mkvmerge v9.9.0 ('Pick Up') 64bit
Writing library : libebml v1.3.4 + libmatroska v1.4.5

Video
ID : 1
Format : AVC
Format/Info : Advanced Video Codec
Format profile : High@L4.0
Format settings, CABAC : Yes
Format settings, ReFrames : 6 frames
Codec ID : V_MPEG4/ISO/AVC
Duration : 27mn 49s
Bit rate : 2 072 Kbps
Width : 1 280 pixels
Height : 720 pixels
Display aspect ratio : 16:9
Frame rate mode : Constant
Frame rate : 23.976 fps
Color space : YUV
Chroma subsampling : 4:2:0
Bit depth : 8 bits
Scan type : Progressive
Bits/(Pixel*Frame) : 0.094
Stream size : 412 MiB (90%)
Writing library : x264 core 148 r2708 86b7198
Encoding settings : cabac=1 / ref=6 / deblock=1:0:0 / analyse=0x3:0x133 / me=umh / subme=9 / psy=1 / psy_rd=1.00:0.00 / mixed_ref=1 / me_range=16 / chroma_me=1 / trellis=1 / 8x8dct=1 / cqm=0 / deadzone=21,11 / fast_pskip=1 / chroma_qp_offset=-2 / threads=12 / lookahead_threads=1 / sliced_threads=0 / nr=0 / decimate=1 / interlaced=0 / bluray_compat=0 / constrained_intra=0 / bframes=3 / b_pyramid=2 / b_adapt=2 / b_bias=0 / direct=3 / weightb=1 / open_gop=0 / weightp=2 / keyint=240 / keyint_min=24 / scenecut=40 / intra_refresh=0 / rc_lookahead=40 / rc=crf / mbtree=1 / crf=15.0 / qcomp=0.60 / qpmin=0 / qpmax=25 / qpstep=4 / ip_ratio=1.40 / aq=1:1.00
Default : Yes
Forced : No
Color primaries : BT.709
Transfer characteristics : BT.709
Matrix coefficients : BT.709
DURATION : 00:27:49.627000000
NUMBER_OF_FRAMES : 40031
NUMBER_OF_BYTES : 446679375
_STATISTICS_WRITING_APP : mkvmerge v9.9.0 ('Pick Up') 64bit
_STATISTICS_WRITING_DATE_UTC : 2017-03-12 11:12:43
_STATISTICS_TAGS : BPS DURATION NUMBER_OF_FRAMES NUMBER_OF_BYTES

Audio
ID : 2
Format : Vorbis
Format settings, Floor : 1
Codec ID : A_VORBIS
Duration : 27mn 49s
Bit rate mode : Variable
Bit rate : 192 Kbps
Channel(s) : 2 channels
Sampling rate : 48.0 KHz
Compression mode : Lossy
Stream size : 38.2 MiB (8%)
Title : Stereo
Writing library : aoTuV 20110424 (UTC 2011-04-24)
Language : ???
Default : Yes
Forced : No
DURATION : 00:27:49.610000000
NUMBER_OF_FRAMES : 131411
NUMBER_OF_BYTES : 34804613
_STATISTICS_WRITING_APP : mkvmerge v9.9.0 ('Pick Up') 64bit
_STATISTICS_WRITING_DATE_UTC : 2017-03-12 11:12:43
_STATISTICS_TAGS : BPS DURATION NUMBER_OF_FRAMES NUMBER_OF_BYTES
Writing application : HandBrake

Внимание! Вы не авторизировались - скачанный по ссылкам ниже торрент не будет учитываться в вашем личном профиле.

Eiyuu Kaitai [2017, BDrip, 720p].torrent
Трекер: Зарегистрирован >_<"

Magnet

Зарегистрирован: 2017-03-12 19:18
Скачан: 0 раз
Размер: 460 MB
Оценка: - (Голосов: 0)
Поблагодарили: 0
 
Список файлов
# \ Папка Размер
Profile PM
Показать сообщения:    
Ответить на тему

Текущее время: 16-Ноя 05:29

Часовой пояс: GMT + 3



Вы не можете начинать темы
Вы не можете отвечать на сообщения
Вы не можете редактировать свои сообщения
Вы не можете удалять свои сообщения
Вы не можете голосовать в опросах
Вы не можете прикреплять файлы к сообщениям
Вы можете скачивать файлы
[  Execution time: 0.036 sec  |  MySQL: 0.039 sec (107%) in 22 queries  |  Mem: 410.98 KB / 1.45 MB / 1.01 MB  |  Load: 0.3 0.5 0.6  ]