Loading...
Error

ViVid Strike! | Решающий удар [2016, драма, махо-сёдзё, фантастика, спокон] [TVrip, 720p] [JPN, субтитры: rus] (12 + 1)

Ответить на тему
Показать список качающих/скачавших
Размер: 6.34 GB
Зарегистрирован: 2 месяца 25 дней
Скачан: 0 раз

Сидов:

Имя UL
Ratio
Передано Скорость Провайдер
up down up down
batyrmastyr ®  0 - - - - Дом.ru
показаны данные только за текущую сессию
 
     
 
 
Автор Сообщение

batyrmastyr

Стаж: 9 лет 2 месяца

Сообщений: 6429

Откуда: Sekai

Провайдер: Дом.ru

Пол: Otoko (M)

Он-лайн: Нет

Карма: +30.81

ViVid Strike!
Решающий удар
ViVid Strike!


Тип: ТВ сериал

pic
Жанры: драма, махо-сёдзё, фантастика, спокон
Длительность: 12 эп. по 25 мин.
Время выхода: c 2016-10-02 по 2016-12-18
Страна: Япония

Режиссёр: Нисимура Дзюндзи
Автор оригинала: Цудзуки Маки
Студия: Seven Arcs Pictures

Описание:
Даже в благополучном центральном мире Галактической федерации не всё так идеально.

На собственной шкуре это пришлось испытать двум девушкам из сиротского приюта: Фуке и Ринне. С детства они вынуждены были работать, чтобы не умереть с голоду, и терпеть насмешки более благополучных сверстников.

Прошло несколько лет и судьба разбросала их по разные стророны жизни. Скромняжка Ринне попала в обеспеченную семью и стала холодной и высокомерной чемпионкой по магическим боевым искусствам. Фуку же преследовали сплошные неприятности: из-за постоянных стычек с местной гопотой ни на одной работе она подолгу не задерживалась, а в приют возвращаться было не с руки, пока судьба не свела её с Айнхард Стратос...

Чем закончится конфликт двух бывших подруг и всё ли так однозначно в их судьбе — ответит этот 5-й (или 4.5-й, кому как нравится) сезон годной, но недостаточно известной в наших кругах франшизы Mahou Shoujo Lyrical Nanoha. ©Nachtwandler


В энциклопедиях:   AniDB  |  ANN  |  World Art

  • Источник релиза:
    • [Leopard-Raws]
    Качество видео:
    • TVrip
    Видео:
    • AVC, 1280 * 720, 2 569 кбит/с
    Аудио:
    • Японская | AAC, 2 канала, 192 кбит/с - оригинальная, в контейнере
    Субтитры:


Скриншоты:
pic pic pic pic pic pic pic pic pic pic pic
Параметры видео | аудио:
General
Complete name : /Volumes/t/ongoing/ViVid Strike! [2016, TVrip]/[Leopard-Raws] ViVid Strike! - 01 RAW (BS11 1280x720 x264 AAC).mp4
Format : MPEG-4
Format profile : Base Media
Codec ID : isom
File size : 475 MiB
Duration : 23mn 59s
Overall bit rate mode : Variable
Overall bit rate : 2 765 Kbps
Encoded date : UTC 2016-10-01 19:18:32
Tagged date : UTC 2016-10-01 19:18:32

Video
ID : 1
Format : AVC
Format/Info : Advanced Video Codec
Format profile : High@L4.1
Format settings, CABAC : Yes
Format settings, ReFrames : 4 frames
Codec ID : avc1
Codec ID/Info : Advanced Video Coding
Duration : 23mn 59s
Bit rate : 2 569 Kbps
Maximum bit rate : 14.2 Mbps
Width : 1 280 pixels
Height : 720 pixels
Display aspect ratio : 16:9
Frame rate mode : Constant
Frame rate : 23.976 fps
Color space : YUV
Chroma subsampling : 4:2:0
Bit depth : 8 bits
Scan type : Progressive
Bits/(Pixel*Frame) : 0.116
Stream size : 441 MiB (93%)
Title : 264:fps=23.976@GPAC0.5.2-DEV-rev376-g5eeb74d-master
Writing library : x264 core 129 r2245+729M 1a52e03
Encoding settings : cabac=1 / ref=4 / deblock=1:1:-1 / analyse=0x3:0x113 / me=umh / subme=9 / psy=1 / fade_compensate=0.00 / psy_rd=1.00:0.00 / mixed_ref=1 / me_range=24 / chroma_me=1 / trellis=2 / 8x8dct=1 / cqm=0 / deadzone=21,11 / fast_pskip=1 / chroma_qp_offset=-2 / threads=8 / lookahead_threads=1 / sliced_threads=0 / nr=0 / decimate=1 / interlaced=0 / bluray_compat=0 / constrained_intra=0 / fgo=0 / bframes=9 / b_pyramid=2 / b_adapt=2 / b_bias=0 / direct=1 / weightb=1 / open_gop=0 / weightp=2 / keyint=240 / keyint_min=24 / scenecut=40 / intra_refresh=0 / rc=crf / mbtree=0 / crf=17.5 / qcomp=0.72 / qpmin=0 / qpmax=69 / qpstep=4 / ip_ratio=1.40 / pb_ratio=1.30 / aq=1:0.85
Encoded date : UTC 2016-10-01 19:18:32
Tagged date : UTC 2016-10-01 19:18:43
Color primaries : BT.709
Transfer characteristics : BT.709
Matrix coefficients : BT.709

Audio
ID : 2
Format : AAC
Format/Info : Advanced Audio Codec
Format profile : LC
Codec ID : 40
Duration : 23mn 59s
Bit rate mode : Variable
Bit rate : 192 Kbps
Maximum bit rate : 236 Kbps
Channel(s) : 2 channels
Channel positions : Front: L R
Sampling rate : 48.0 KHz
Compression mode : Lossy
Stream size : 32.9 MiB (7%)
Language : Japanese
Encoded date : UTC 2016-10-01 16:26:52
Tagged date : UTC 2016-10-01 19:18:43

Внимание! Вы не авторизировались - скачанный по ссылкам ниже торрент не будет учитываться в вашем личном профиле.

ViVid Strike! [2016, TVrip].torrent
Трекер: Зарегистрирован

Торрент


Magnet

Зарегистрирован: 2016-12-31 22:42
Скачан: 0 раз
Размер: 6.34 GB
Оценка: - (Голосов: 0)
Поблагодарили: 0
Поделиться:
 
Список файлов
# \ Папка ViVid Strike! [2016, TVrip] Размер
1 [Leopard-Raws] ViVid Strike! - 01 RAW (BS11 1280x720 x264 AAC).ass 42 KB
2 [Leopard-Raws] ViVid Strike! - 01 RAW (BS11 1280x720 x264 AAC).mp4 475 MB
3 [Leopard-Raws] ViVid Strike! - 02 RAW (BS11 1280x720 x264 AAC).ass 41 KB
4 [Leopard-Raws] ViVid Strike! - 02 RAW (BS11 1280x720 x264 AAC).mp4 454 MB
5 [Leopard-Raws] ViVid Strike! - 03 RAW (BS11 1280x720 x264 AAC).ass 42 KB
6 [Leopard-Raws] ViVid Strike! - 03 RAW (BS11 1280x720 x264 AAC).mp4 404 MB
7 [Leopard-Raws] ViVid Strike! - 04 RAW (BS11 1280x720 x264 AAC).ass 41 KB
8 [Leopard-Raws] ViVid Strike! - 04 RAW (BS11 1280x720 x264 AAC).mp4 399 MB
9 [Leopard-Raws] ViVid Strike! - 05 RAW (BS11 1280x720 x264 AAC).ass 42 KB
10 [Leopard-Raws] ViVid Strike! - 05 RAW (BS11 1280x720 x264 AAC).mp4 445 MB
11 [Leopard-Raws] ViVid Strike! - 06 RAW (BS11 1280x720 x264 AAC).ass 41 KB
12 [Leopard-Raws] ViVid Strike! - 06 RAW (BS11 1280x720 x264 AAC).mp4 592 MB
13 [Leopard-Raws] ViVid Strike! - 07 RAW (BS11 1280x720 x264 AAC).ass 42 KB
14 [Leopard-Raws] ViVid Strike! - 07 RAW (BS11 1280x720 x264 AAC).mp4 553 MB
15 [Leopard-Raws] ViVid Strike! - 08 RAW (BS11 1280x720 x264 AAC).ass 41 KB
16 [Leopard-Raws] ViVid Strike! - 08 RAW (BS11 1280x720 x264 AAC).mp4 491 MB
17 [Leopard-Raws] ViVid Strike! - 09 RAW (BS11 1280x720 x264 AAC).ass 46 KB
18 [Leopard-Raws] ViVid Strike! - 09 RAW (BS11 1280x720 x264 AAC).mp4 418 MB
19 [Leopard-Raws] ViVid Strike! - 10 RAW (BS11 1280x720 x264 AAC).ass 41 KB
20 [Leopard-Raws] ViVid Strike! - 10 RAW (BS11 1280x720 x264 AAC).mp4 636 MB
21 [Leopard-Raws] ViVid Strike! - 11 RAW (BS11 1280x720 x264 AAC).ass 36 KB
22 [Leopard-Raws] ViVid Strike! - 11 RAW (BS11 1280x720 x264 AAC).mp4 703 MB
23 [Leopard-Raws] ViVid Strike! - 12 END (BS11 1280x720 x264 AAC).ass 36 KB
24 [Leopard-Raws] ViVid Strike! - 12 END (BS11 1280x720 x264 AAC).mp4 329 MB
25 [Leopard-Raws] ViVid Strike! - ViVid X'mas Special (BS11 1280x720 x264 AAC).mp4 595 MB


Последний раз редактировалось: batyrmastyr (2016-12-31 23:05), всего редактировалось 8 раз(а)
Profile PM

batyrmastyr

Стаж: 9 лет 2 месяца

Сообщений: 6429

Откуда: Sekai

Провайдер: Дом.ru

Пол: Otoko (M)

Он-лайн: Нет

Карма: +30.81

post 12-Ноя-2016 23:18 (спустя 7 дней)
6-я серия

_________________
pic
я несу глупость во имя бака-тим
Gundam Team
Yuri TEAM
Термины
Profile PM

batyrmastyr

Стаж: 9 лет 2 месяца

Сообщений: 6429

Откуда: Sekai

Провайдер: Дом.ru

Пол: Otoko (M)

Он-лайн: Нет

Карма: +30.81

post 17-Ноя-2016 22:38 (спустя 4 дня)
7-я серия

_________________
pic
я несу глупость во имя бака-тим
Gundam Team
Yuri TEAM
Термины
Profile PM

batyrmastyr

Стаж: 9 лет 2 месяца

Сообщений: 6429

Откуда: Sekai

Провайдер: Дом.ru

Пол: Otoko (M)

Он-лайн: Нет

Карма: +30.81

post 22-Ноя-2016 23:11 (спустя 5 дней)
8-я серия

_________________
pic
я несу глупость во имя бака-тим
Gundam Team
Yuri TEAM
Термины
Profile PM

batyrmastyr

Стаж: 9 лет 2 месяца

Сообщений: 6429

Откуда: Sekai

Провайдер: Дом.ru

Пол: Otoko (M)

Он-лайн: Нет

Карма: +30.81

post 04-Дек-2016 23:00 (спустя 11 дней)
9-я серия

_________________
pic
я несу глупость во имя бака-тим
Gundam Team
Yuri TEAM
Термины
Profile PM

batyrmastyr

Стаж: 9 лет 2 месяца

Сообщений: 6429

Откуда: Sekai

Провайдер: Дом.ru

Пол: Otoko (M)

Он-лайн: Нет

Карма: +30.81

post 14-Дек-2016 00:35 (спустя 9 дней)
10-я серия и равка 11-й

_________________
pic
я несу глупость во имя бака-тим
Gundam Team
Yuri TEAM
Термины
Profile PM

batyrmastyr

Стаж: 9 лет 2 месяца

Сообщений: 6429

Откуда: Sekai

Провайдер: Дом.ru

Пол: Otoko (M)

Он-лайн: Нет

Карма: +30.81

post 18-Дек-2016 23:47 (спустя 4 дня)
11-я серия и равка 12-й

_________________
pic
я несу глупость во имя бака-тим
Gundam Team
Yuri TEAM
Термины
Profile PM

batyrmastyr

Стаж: 9 лет 2 месяца

Сообщений: 6429

Откуда: Sekai

Провайдер: Дом.ru

Пол: Otoko (M)

Он-лайн: Нет

Карма: +30.81

post 31-Дек-2016 22:43 (спустя 12 дней)
Субтитры к 12-й и равка спецвыпуска

_________________
pic
я несу глупость во имя бака-тим
Gundam Team
Yuri TEAM
Термины
Profile PM
Показать сообщения:    
Ответить на тему

Текущее время: 26-Мар 21:47

Часовой пояс: GMT + 3



Вы не можете начинать темы
Вы не можете отвечать на сообщения
Вы не можете редактировать свои сообщения
Вы не можете удалять свои сообщения
Вы не можете голосовать в опросах
Вы не можете прикреплять файлы к сообщениям
Вы можете скачивать файлы
[  Execution time: 0.074 sec  |  MySQL: 0.014 sec (19%) in 20 queries  |  Mem: 714.73 KB / 3.92 MB / 3.29 MB  |  Load: 2.6 2 1.6  ]