Loading...
Error

Ajin 2 (2016) | Адзин 2 | Полулюди 2 [2016, мистика, приключения, сэйнэн] [TVrip, 720p] [JPN, субтитры: rus] (13)

Ответить на тему
Показать список качающих/скачавших
Размер: 6.78 GB
Зарегистрирован: 2 года 2 месяца
Скачан: 1 раз

Сидов:

Имя UL
Ratio
Передано Скорость Провайдер
up down up down
batyrmastyr ®  0 - - - - Не определен
показаны данные только за текущую сессию
 
     
 
 
Автор Сообщение

batyrmastyr

Стаж: 11 лет

Сообщений: 6504

Откуда: Sekai

Провайдер: ВТ (IXNN)

Пол: Otoko (M)

Он-лайн: Нет

Карма: +33.63

Ajin 2 (2016)
Адзин 2 | Полулюди 2
亜人 2 (2016)


Тип: ТВ сериал

pic
Жанры: мистика, приключения, сэйнэн
Длительность: 13 эп. по 25 мин.
Время выхода: c 08.10.2016 по 24.12.2016
Страна: Япония

Режиссёр: Ёсикацу Мацумото
Сценарист: Сэко Хироси
Снято по: манге Ajin
Автор оригинала: Сакурай Гамон
Студия: Polygon Pictures

Описание:
Продолжение первого сезона.
На боевом полигоне в Африке были найдены неведомые ранее людям бессмертные формы жизни. Их изучают, отрезая им конечности, причиняя сильную боль, вырезая и продавая органы, считая, что всё это лишь для блага человечества. Люди боятся адзинов, потому что они внешне ничем не отличаются от людей и находятся среди них. Пока человек не умрёт, он не может полностью быть уверен, что он сам не адзин. Главный персонаж — студент Кэй Нагай, который узнаёт о своих способностях совершенно случайно.


В энциклопедиях:   ANN  |  AniDB  |  World Art  |  Википедия

  • Источник релиза:
    • [Leopard-Raws]
    Качество видео:
    • TVrip
    Видео:
    • AVC, 1280 * 720, 2 789 кбит/с
    Аудио:
    • Японская | AAC, 2 канала, 192 кбит/с - оригинальная, в контейнере
    Субтитры:


Скриншоты:
pic pic pic pic pic pic pic pic pic pic
Параметры видео | аудио:
General
Complete name : /Volumes/t/ongoing/Ajin 2 [2016, TVrip]/[Leopard-Raws] Ajin 2 - 01 RAW (TBS 1280x720 x264 AAC).mp4
Format : MPEG-4
Format profile : Base Media
Codec ID : isom
File size : 522 MiB
Duration : 24mn 27s
Overall bit rate mode : Variable
Overall bit rate : 2 985 Kbps
Encoded date : UTC 2016-10-08 08:44:54
Tagged date : UTC 2016-10-08 08:44:54

Video
ID : 1
Format : AVC
Format/Info : Advanced Video Codec
Format profile : High@L4.1
Format settings, CABAC : Yes
Format settings, ReFrames : 4 frames
Codec ID : avc1
Codec ID/Info : Advanced Video Coding
Duration : 24mn 26s
Bit rate : 2 789 Kbps
Maximum bit rate : 20.7 Mbps
Width : 1 280 pixels
Height : 720 pixels
Display aspect ratio : 16:9
Frame rate mode : Constant
Frame rate : 23.976 fps
Color space : YUV
Chroma subsampling : 4:2:0
Bit depth : 8 bits
Scan type : Progressive
Bits/(Pixel*Frame) : 0.126
Stream size : 488 MiB (93%)
Title : 264:fps=23.976@GPAC0.5.2-DEV-rev376-g5eeb74d-master
Writing library : x264 core 129 r2245+729M 1a52e03
Encoding settings : cabac=1 / ref=4 / deblock=1:1:-1 / analyse=0x3:0x113 / me=umh / subme=9 / psy=1 / fade_compensate=0.00 / psy_rd=1.00:0.00 / mixed_ref=1 / me_range=24 / chroma_me=1 / trellis=2 / 8x8dct=1 / cqm=0 / deadzone=21,11 / fast_pskip=1 / chroma_qp_offset=-2 / threads=8 / lookahead_threads=1 / sliced_threads=0 / nr=0 / decimate=1 / interlaced=0 / bluray_compat=0 / constrained_intra=0 / fgo=0 / bframes=9 / b_pyramid=2 / b_adapt=2 / b_bias=0 / direct=1 / weightb=1 / open_gop=0 / weightp=2 / keyint=240 / keyint_min=24 / scenecut=40 / intra_refresh=0 / rc=crf / mbtree=0 / crf=17.5 / qcomp=0.72 / qpmin=0 / qpmax=69 / qpstep=4 / ip_ratio=1.40 / pb_ratio=1.30 / aq=1:0.85
Encoded date : UTC 2016-10-08 08:44:54
Tagged date : UTC 2016-10-08 08:44:59
Color primaries : BT.709
Transfer characteristics : BT.709
Matrix coefficients : BT.709

Audio
ID : 2
Format : AAC
Format/Info : Advanced Audio Codec
Format profile : LC
Codec ID : 40
Duration : 24mn 27s
Bit rate mode : Variable
Bit rate : 192 Kbps
Maximum bit rate : 241 Kbps
Channel(s) : 2 channels
Channel positions : Front: L R
Sampling rate : 48.0 KHz
Compression mode : Lossy
Stream size : 33.5 MiB (6%)
Language : Japanese
Encoded date : UTC 2016-10-07 18:46:39
Tagged date : UTC 2016-10-08 08:44:59

Внимание! Вы не авторизировались - скачанный по ссылкам ниже торрент не будет учитываться в вашем личном профиле.

Ajin 2 [2016, TVrip].torrent
Трекер: Зарегистрирован

Торрент


Magnet

Зарегистрирован: 2016-12-25 14:11
Скачан: 1 раз
Размер: 6.78 GB
Оценка: - (Голосов: 0)
Поблагодарили: 0
 
Список файлов
# \ Папка Ajin 2 [2016, TVrip] Размер
1 [Leopard-Raws] Ajin 2 - 01 RAW (TBS 1280x720 x264 AAC).ass 31 KB
2 [Leopard-Raws] Ajin 2 - 01 RAW (TBS 1280x720 x264 AAC).mp4 522 MB
3 [Leopard-Raws] Ajin 2 - 02 RAW (TBS 1280x720 x264 AAC).ass 30 KB
4 [Leopard-Raws] Ajin 2 - 02 RAW (TBS 1280x720 x264 AAC).mp4 481 MB
5 [Leopard-Raws] Ajin 2 - 03 RAW (TBS 1280x720 x264 AAC).ass 32 KB
6 [Leopard-Raws] Ajin 2 - 03 RAW (TBS 1280x720 x264 AAC).mp4 518 MB
7 [Leopard-Raws] Ajin 2 - 04 RAW (TBS 1280x720 x264 AAC).ass 28 KB
8 [Leopard-Raws] Ajin 2 - 04 RAW (TBS 1280x720 x264 AAC).mp4 535 MB
9 [Leopard-Raws] Ajin 2 - 05 RAW (TBS 1280x720 x264 AAC).ass 32 KB
10 [Leopard-Raws] Ajin 2 - 05 RAW (TBS 1280x720 x264 AAC).mp4 508 MB
11 [Leopard-Raws] Ajin 2 - 06 RAW (TBS 1280x720 x264 AAC).ass 29 KB
12 [Leopard-Raws] Ajin 2 - 06 RAW (TBS 1280x720 x264 AAC).mp4 526 MB
13 [Leopard-Raws] Ajin 2 - 07 RAW (TBS 1280x720 x264 AAC).ass 32 KB
14 [Leopard-Raws] Ajin 2 - 07 RAW (TBS 1280x720 x264 AAC).mp4 563 MB
15 [Leopard-Raws] Ajin 2 - 08 RAW (TBS 1280x720 x264 AAC).ass 31 KB
16 [Leopard-Raws] Ajin 2 - 08 RAW (TBS 1280x720 x264 AAC).mp4 506 MB
17 [Leopard-Raws] Ajin 2 - 09 RAW (TBS 1280x720 x264 AAC).ass 27 KB
18 [Leopard-Raws] Ajin 2 - 09 RAW (TBS 1280x720 x264 AAC).mp4 604 MB
19 [Leopard-Raws] Ajin 2 - 10 RAW (TBS 1280x720 x264 AAC).ass 32 KB
20 [Leopard-Raws] Ajin 2 - 10 RAW (TBS 1280x720 x264 AAC).mp4 548 MB
21 [Leopard-Raws] Ajin 2 - 11 RAW (TBS 1280x720 x264 AAC).ass 31 KB
22 [Leopard-Raws] Ajin 2 - 11 RAW (TBS 1280x720 x264 AAC).mp4 530 MB
23 [Leopard-Raws] Ajin 2 - 12 RAW (TBS 1280x720 x264 AAC).ass 30 KB
24 [Leopard-Raws] Ajin 2 - 12 RAW (TBS 1280x720 x264 AAC).mp4 561 MB
25 [Leopard-Raws] Ajin 2 - 13 END (TBS 1280x720 x264 AAC).ass 25 KB
26 [Leopard-Raws] Ajin 2 - 13 END (TBS 1280x720 x264 AAC).mp4 538 MB


Последний раз редактировалось: batyrmastyr (2016-12-25 14:10), всего редактировалось 11 раз(а)
Profile PM

AK47

Стаж: 11 лет

Сообщений: 12

Откуда: Саров

Провайдер: ВТ (IXNN)

Пол: Otoko (M)

Он-лайн: Нет

Карма: +0.04

post 10-Окт-2016 19:19 (спустя 19 часов)
тоже только одна серия.
Profile PM

Smith

Стаж: 11 лет

Сообщений: 3979

Провайдер: МТС Домашний (IXNN)

Пол: Otoko (M)

Он-лайн: Нет

Карма: +24.35

post 10-Окт-2016 21:55 (спустя 2 часа 36 минут)
ну так сезон только стартовал... прояви терпение, дилер еще нафармит)

_________________
pic
Profile PM

AK47

Стаж: 11 лет

Сообщений: 12

Откуда: Саров

Провайдер: ВТ (IXNN)

Пол: Otoko (M)

Он-лайн: Нет

Карма: +0.04

post 11-Окт-2016 18:15 (спустя 20 часов)
Да я не про это) просто в заголовке написано (12). обычно так пишут когда сезон полный уже..)


Последний раз редактировалось: AK47 (2016-12-19 21:01), всего редактировалось 1 раз
Profile PM

batyrmastyr

Стаж: 11 лет

Сообщений: 6504

Откуда: Sekai

Провайдер: ВТ (IXNN)

Пол: Otoko (M)

Он-лайн: Нет

Карма: +33.63

post 11-Окт-2016 22:09 (спустя 3 часа)
AK47
Surprised

_________________
pic
я несу глупость во имя бака-тим
Gundam Team
Yuri TEAM
Термины
Profile PM

batyrmastyr

Стаж: 11 лет

Сообщений: 6504

Откуда: Sekai

Провайдер: ВТ (IXNN)

Пол: Otoko (M)

Он-лайн: Нет

Карма: +33.63

post 20-Ноя-2016 22:43 (спустя 1 месяц 9 дней)
7-я серия

_________________
pic
я несу глупость во имя бака-тим
Gundam Team
Yuri TEAM
Термины
Profile PM

post 25-Дек-2016 14:12 (спустя 1 месяц 4 дня)
Тема была перенесена из форума Ongoing в форум ТВ

Причина: Сериал выложен полностью

batyrmastyr
 
Показать сообщения:    
Ответить на тему

Текущее время: 23-Мар 05:29

Часовой пояс: GMT + 3



Вы не можете начинать темы
Вы не можете отвечать на сообщения
Вы не можете редактировать свои сообщения
Вы не можете удалять свои сообщения
Вы не можете голосовать в опросах
Вы не можете прикреплять файлы к сообщениям
Вы можете скачивать файлы
[  Execution time: 0.028 sec  |  MySQL: 0.025 sec (91%) in 21 queries  |  Mem: 410.51 KB / 1.51 MB / 1.09 MB  |  Load: 2.6 2.1 2.2  ]