Loading...
Error

91 Days | 91 день [2016, боевик, трагедия] [TVrip, 720p] [JPN, субтитры: rus] (12 + 1)

Ответить на тему
Показать список качающих/скачавших
Размер: 5.24 GB
Зарегистрирован: 2 года 3 месяца
Скачан: 2 раза

Сидов:

Имя UL
Ratio
Передано Скорость Провайдер
up down up down
batyrmastyr ®  0 - - - - Не определен
показаны данные только за текущую сессию
 
     
 
 
Автор Сообщение

batyrmastyr

Стаж: 11 лет

Сообщений: 6495

Откуда: Sekai

Провайдер: Не определен

Пол: Не определилось

Он-лайн: Нет

Карма: +33.44

91 Days
91 день


Тип: ТВ сериал

pic
Жанры: боевик, трагедия
Длительность: 12 эп. по 25 мин. + эпизод-коллаж
Время выхода: c 26.06.2016 по 01.10.2016
Страна: Япония

Режиссёр: Кабураги Хиро
Сценарист: Кисимото Таку
Студия: Shuka

Описание:
Времена сухого закона, городом правит мафия. Криминальные боссы и мелкие сошки — каждый наживается за счет запрещенного варева, которое меж тем только укрепляет свои позиции на чёрном рынке.
Анджело, чья семья погибла в результате мафиозных распрей, возвращается в город спустя семь долгих лет. Но возвращается неспроста. Он жаждет мести. И письмо, полученное от таинственного отправителя, побуждает его действовать.


В энциклопедиях:   ANN  |  Википедия  |  AniDB  |  World Art

  • Источник релиза:
    • [Leopard-Raws]
    Качество видео:
    • TVrip
    Видео:
    • AVC, 1280 * 720, 1 441 кбит/с
    Аудио:
    • Японская | AAC, 2 канала, 192 кбит/с - оригинальная, в контейнере
    Субтитры:


Скриншоты:
pic pic pic pic pic pic pic pic pic pic pic pic
Параметры видео | аудио:
General
Complete name : /Volumes/t/ongoing/91 Days [2016, TVrip]/[Leopard-Raws] 91 Days - 01 RAW (TBS 1280x720 x264 AAC).mp4
Format : MPEG-4
Format profile : Base Media
Codec ID : isom
File size : 286 MiB
Duration : 24mn 27s
Overall bit rate mode : Variable
Overall bit rate : 1 636 Kbps
Encoded date : UTC 2016-07-09 03:01:17
Tagged date : UTC 2016-07-09 03:01:17

Video
ID : 1
Format : AVC
Format/Info : Advanced Video Codec
Format profile : High@L4.1
Format settings, CABAC : Yes
Format settings, ReFrames : 4 frames
Codec ID : avc1
Codec ID/Info : Advanced Video Coding
Duration : 24mn 26s
Bit rate : 1 441 Kbps
Maximum bit rate : 11.0 Mbps
Width : 1 280 pixels
Height : 720 pixels
Display aspect ratio : 16:9
Frame rate mode : Constant
Frame rate : 23.976 fps
Color space : YUV
Chroma subsampling : 4:2:0
Bit depth : 8 bits
Scan type : Progressive
Bits/(Pixel*Frame) : 0.065
Stream size : 252 MiB (88%)
Title : 264:fps=23.976@GPAC0.5.1-DEV-rev4929
Writing library : x264 core 129 r2245+729M 1a52e03
Encoding settings : cabac=1 / ref=4 / deblock=1:1:-1 / analyse=0x3:0x113 / me=umh / subme=9 / psy=1 / fade_compensate=0.00 / psy_rd=1.00:0.00 / mixed_ref=1 / me_range=24 / chroma_me=1 / trellis=2 / 8x8dct=1 / cqm=0 / deadzone=21,11 / fast_pskip=1 / chroma_qp_offset=-2 / threads=8 / lookahead_threads=1 / sliced_threads=0 / nr=0 / decimate=1 / interlaced=0 / bluray_compat=0 / constrained_intra=0 / fgo=0 / bframes=9 / b_pyramid=2 / b_adapt=2 / b_bias=0 / direct=1 / weightb=1 / open_gop=0 / weightp=2 / keyint=240 / keyint_min=24 / scenecut=40 / intra_refresh=0 / rc=crf / mbtree=0 / crf=17.5 / qcomp=0.72 / qpmin=0 / qpmax=69 / qpstep=4 / ip_ratio=1.40 / pb_ratio=1.30 / aq=1:0.85
Encoded date : UTC 2016-07-09 03:01:17
Tagged date : UTC 2016-07-09 03:01:19
Color primaries : BT.709
Transfer characteristics : BT.709
Matrix coefficients : BT.709

Audio
ID : 2
Format : AAC
Format/Info : Advanced Audio Codec
Format profile : LC
Codec ID : 40
Duration : 24mn 27s
Bit rate mode : Variable
Bit rate : 192 Kbps
Maximum bit rate : 234 Kbps
Channel(s) : 2 channels
Channel positions : Front: L R
Sampling rate : 48.0 KHz
Compression mode : Lossy
Stream size : 33.5 MiB (12%)
Language : Japanese
Encoded date : UTC 2016-07-08 19:50:52
Tagged date : UTC 2016-07-09 03:01:19

Внимание! Вы не авторизировались - скачанный по ссылкам ниже торрент не будет учитываться в вашем личном профиле.

91 Days [2016, TVrip].torrent
Трекер: Зарегистрирован

Торрент


Magnet

Зарегистрирован: 2016-10-07 22:29
Скачан: 2 раз
Размер: 5.24 GB
Оценка: - (Голосов: 0)
Поблагодарили: 0
 
Список файлов
# \ Папка Размер


Последний раз редактировалось: batyrmastyr (2016-10-07 22:30), всего редактировалось 2 раз(а)
Profile PM

post 07-Окт-2016 22:30 (спустя 1 месяц 3 дня)
Тема была перенесена из форума Ongoing в форум ТВ

Причина: Сериал выложен полностью

batyrmastyr
 
Показать сообщения:    
Ответить на тему

Текущее время: 22-Янв 21:21

Часовой пояс: GMT + 3



Вы не можете начинать темы
Вы не можете отвечать на сообщения
Вы не можете редактировать свои сообщения
Вы не можете удалять свои сообщения
Вы не можете голосовать в опросах
Вы не можете прикреплять файлы к сообщениям
Вы можете скачивать файлы
[  Execution time: 0.043 sec  |  MySQL: 0.065 sec (150%) in 24 queries  |  Mem: 410.52 KB / 1.45 MB / 1.02 MB  |  Load: 1.1 0.9 0.9  ]