Loading...
Error

Shinmai Maou no Testament Burst | По велению адской сестры ТВ-2 [2015, гарем, комедия, приключения, сёнэн, фэнтези, эччи] [BDrip, 720p] [JPN, субтитры: rus] (10 + 1 + 5)

Ответить на тему
Показать список качающих/скачавших
Размер: 10.18 GB
Зарегистрирован: 3 года 4 месяца
Скачан: 1 раз
DL-List: Нет

Полного источника не было: 5 месяцев 27 дней

 
     
 
 
Автор Сообщение

batyrmastyr

Стаж: 11 лет

Сообщений: 6511

Откуда: Sekai

Провайдер: ВТ (IXNN)

Пол: Otoko (M)

Он-лайн: Нет

Карма: +33.86

Shinmai Maou no Testament Burst
По велению адской сестры ТВ-2
新妹魔王の契約者 BURST


Тип: ТВ сериал

pic
Жанры: гарем, комедия, приключения, сёнэн, фэнтези, эччи
Длительность: 10 эп. по 25 мин. + OAD + 5 спецвыпусков
Время выхода: c 10.10.2015 по 12.12.2015
Страна: Япония

Режиссёр: Сайто Хисаси
Сценарист: Уэтакэ Сумио
Автор оригинала: Уэсу Тэцуто
Студия: Production IMS

Описание:
Продолжение первого сезона.

Все начинается с того, что Басара Тодзё, старшеклассник первого года обучения, а по совместительству - выходец из клана героев, впал в замешательство от неожиданного вопроса его эксцентричного отца: "Эй, не ты ли говорил, что хочешь сестренку?" При этом папаша добавил, что он повторно женился. Затем папаня отправился за границу, а озадаченный Басара получил двух красивых сводных сестер - Мио и Марию. Однако, Мио и Мария оказались не обычными людьми, а Повелительницей демонов и суккубом! © Komugi-chan


В энциклопедиях:   AniDB  |  World Art  |  Википедия

  • Качество видео:
    • BDrip
    Видео:
    • AVC, 1280 * 720, 3 811 кбит/с
    Аудио:
    • Японская | Vorbis, 2 канала, 224 кбит/с - оригинальная, в контейнере
    Субтитры:
    • Русские - внешними файлами - GerKo & Ryuji - Gerale, Komugi-chan, Ryuji


Скриншоты:
pic pic pic pic pic pic pic pic pic pic
Параметры видео | аудио:
General
Unique ID : 178202005503363611341824338899567102551 (0x86107535FA3252232C7561A3464FCA57)
Complete name : /Volumes/t/ongoing/Shinmai Maou no Testament ~Burst~ [2015, BDrip, 720p]/Shinmai Maou no Testament ~Burst~ 01 (BDRip 1280x720 H.264 Vorbis).mkv
Format : Matroska
Format version : Version 4 / Version 2
File size : 756 MiB
Duration : 25mn 41s
Overall bit rate mode : Variable
Overall bit rate : 4 117 Kbps
Movie name : Shinmai Maou no Testament ~Burst~ 01
Encoded date : UTC 2016-05-08 20:17:35
Writing application : mkvmerge v9.0.1 ('Obstacles') 64bit
Writing library : libebml v1.3.3 + libmatroska v1.4.4

Video
ID : 1
Format : AVC
Format/Info : Advanced Video Codec
Format profile : High@L4.0
Format settings, CABAC : Yes
Format settings, ReFrames : 6 frames
Codec ID : V_MPEG4/ISO/AVC
Duration : 25mn 41s
Bit rate : 3 811 Kbps
Width : 1 280 pixels
Height : 720 pixels
Display aspect ratio : 16:9
Frame rate mode : Constant
Frame rate : 23.976 fps
Color space : YUV
Chroma subsampling : 4:2:0
Bit depth : 8 bits
Scan type : Progressive
Bits/(Pixel*Frame) : 0.172
Stream size : 700 MiB (93%)
Writing library : x264 core 142 r2479 dd79a61
Encoding settings : cabac=1 / ref=6 / deblock=1:0:0 / analyse=0x3:0x133 / me=umh / subme=10 / psy=1 / psy_rd=1.00:0.00 / mixed_ref=1 / me_range=16 / chroma_me=1 / trellis=2 / 8x8dct=1 / cqm=0 / deadzone=21,11 / fast_pskip=1 / chroma_qp_offset=-2 / threads=12 / lookahead_threads=1 / sliced_threads=0 / nr=0 / decimate=1 / interlaced=0 / bluray_compat=0 / constrained_intra=0 / bframes=3 / b_pyramid=2 / b_adapt=2 / b_bias=0 / direct=3 / weightb=1 / open_gop=0 / weightp=1 / keyint=240 / keyint_min=24 / scenecut=40 / intra_refresh=0 / rc_lookahead=40 / rc=crf / mbtree=1 / crf=15.0 / qcomp=0.60 / qpmin=7 / qpmax=20 / qpstep=4 / ip_ratio=1.40 / aq=1:1.00
Default : Yes
Forced : No
Color primaries : BT.709
Transfer characteristics : BT.709
Matrix coefficients : BT.709
DURATION : 00:25:41.248000000
NUMBER_OF_FRAMES : 36953
NUMBER_OF_BYTES : 752814255
_STATISTICS_WRITING_APP : mkvmerge v9.0.1 ('Obstacles') 64bit
_STATISTICS_WRITING_DATE_UTC : 2016-05-08 20:17:35
_STATISTICS_TAGS : BPS DURATION NUMBER_OF_FRAMES NUMBER_OF_BYTES

Audio
ID : 2
Format : Vorbis
Format settings, Floor : 1
Codec ID : A_VORBIS
Duration : 25mn 41s
Bit rate mode : Variable
Bit rate : 224 Kbps
Channel(s) : 2 channels
Sampling rate : 48.0 KHz
Compression mode : Lossy
Stream size : 41.2 MiB (5%)
Title : Stereo
Writing library : aoTuV 20110424 (UTC 2011-04-24)
Language : Japanese
Default : Yes
Forced : No
DURATION : 00:25:41.197000000
NUMBER_OF_FRAMES : 152129
NUMBER_OF_BYTES : 39790300
_STATISTICS_WRITING_APP : mkvmerge v9.0.1 ('Obstacles') 64bit
_STATISTICS_WRITING_DATE_UTC : 2016-05-08 20:17:35
_STATISTICS_TAGS : BPS DURATION NUMBER_OF_FRAMES NUMBER_OF_BYTES
Writing application : HandBrake

Внимание! Вы не авторизировались - скачанный по ссылкам ниже торрент не будет учитываться в вашем личном профиле.

Shinmai Maou no Testament ~Burst~ [2015, BDrip, 720p].torrent
Трекер: Зарегистрирован

Торрент


Magnet

Зарегистрирован: 2016-06-05 20:40
Скачан: 1 раз
Размер: 10.18 GB
Оценка: - (Голосов: 0)
Поблагодарили: 0
 
Список файлов
# \ Папка Shinmai Maou no Testament ~Burst~ [2015, BDrip, 720p] Размер
1 OP ED / Shinmai Maou no Testament ~Burst~ ED (BDRip 1280x720 H.264 Vorbis).mkv 73 MB
2 OP ED / Shinmai Maou no Testament ~Burst~ ED vOAD (BDRip 1280x720 H.264 Vorbis).mkv 20 MB
3 OP ED / Shinmai Maou no Testament ~Burst~ EDv2 (BDRip 1280x720 H.264 Vorbis).mkv 74 MB
4 OP ED / Shinmai Maou no Testament ~Burst~ EDv3 (BDRip 1280x720 H.264 Vorbis).mkv 75 MB
5 OP ED / Shinmai Maou no Testament ~Burst~ EDv4 (BDRip 1280x720 H.264 Vorbis).mkv 74 MB
6 OP ED / Shinmai Maou no Testament ~Burst~ EDv5 (BDRip 1280x720 H.264 Vorbis).mkv 24 MB
7 OP ED / Shinmai Maou no Testament ~Burst~ OP (BDRip 1280x720 H.264 Vorbis).mkv 67 MB
8 OP ED / Shinmai Maou no Testament ~Burst~ OPv2 (BDRip 1280x720 H.264 Vorbis).mkv 67 MB
9 OP ED / Shinmai Maou no Testament ~Burst~ OPv3 (BDRip 1280x720 H.264 Vorbis).mkv 67 MB
10 OP ED / Shinmai Maou no Testament ~Burst~ OPv4 (BDRip 1280x720 H.264 Vorbis).mkv 68 MB
11 OP ED / Shinmai Maou no Testament ~Burst~ OPv5 (BDRip 1280x720 H.264 Vorbis).mkv 67 MB
12 OP ED / Shinmai Maou no Testament ~Burst~ OPv6 (BDRip 1280x720 H.264 Vorbis).mkv 67 MB
13 Shinmai Maou no Testament ~Burst~ 01 (BDRip 1280x720 H.264 Vorbis).ass 34 KB
14 Shinmai Maou no Testament ~Burst~ 01 (BDRip 1280x720 H.264 Vorbis).mkv 756 MB
15 Shinmai Maou no Testament ~Burst~ 02 (BDRip 1280x720 H.264 Vorbis).ass 37 KB
16 Shinmai Maou no Testament ~Burst~ 02 (BDRip 1280x720 H.264 Vorbis).mkv 783 MB
17 Shinmai Maou no Testament ~Burst~ 03 (BDRip 1280x720 H.264 Vorbis).ass 37 KB
18 Shinmai Maou no Testament ~Burst~ 03 (BDRip 1280x720 H.264 Vorbis).mkv 722 MB
19 Shinmai Maou no Testament ~Burst~ 04 (BDRip 1280x720 H.264 Vorbis).ass 40 KB
20 Shinmai Maou no Testament ~Burst~ 04 (BDRip 1280x720 H.264 Vorbis).mkv 684 MB
21 Shinmai Maou no Testament ~Burst~ 05 (BDRip 1280x720 H.264 Vorbis).ass 29 KB
22 Shinmai Maou no Testament ~Burst~ 05 (BDRip 1280x720 H.264 Vorbis).mkv 825 MB
23 Shinmai Maou no Testament ~Burst~ 06 (BDRip 1280x720 H.264 Vorbis).ass 35 KB
24 Shinmai Maou no Testament ~Burst~ 06 (BDRip 1280x720 H.264 Vorbis).mkv 751 MB
25 Shinmai Maou no Testament ~Burst~ 07 (BDRip 1280x720 H.264 Vorbis).ass 30 KB
26 Shinmai Maou no Testament ~Burst~ 07 (BDRip 1280x720 H.264 Vorbis).mkv 711 MB
27 Shinmai Maou no Testament ~Burst~ 08 (BDRip 1280x720 H.264 Vorbis).ass 34 KB
28 Shinmai Maou no Testament ~Burst~ 08 (BDRip 1280x720 H.264 Vorbis).mkv 771 MB
29 Shinmai Maou no Testament ~Burst~ 09 (BDRip 1280x720 H.264 Vorbis).ass 23 KB
30 Shinmai Maou no Testament ~Burst~ 09 (BDRip 1280x720 H.264 Vorbis).mkv 891 MB
31 Shinmai Maou no Testament ~Burst~ 10 (BDRip 1280x720 H.264 Vorbis).ass 32 KB
32 Shinmai Maou no Testament ~Burst~ 10 (BDRip 1280x720 H.264 Vorbis).mkv 853 MB
33 Shinmai Maou no Testament ~Burst~ OAD (BDRip 1280x720 H.264 Vorbis).ass 33 KB
34 Shinmai Maou no Testament ~Burst~ OAD (BDRip 1280x720 H.264 Vorbis).mkv 620 MB
35 Shinmai Maou no Testament ~Burst~ SP1 (BDRip 1280x720 H.264 Vorbis).mkv 286 MB
36 Shinmai Maou no Testament ~Burst~ SP2 (BDRip 1280x720 H.264 Vorbis).mkv 377 MB
37 Shinmai Maou no Testament ~Burst~ SP3 (BDRip 1280x720 H.264 Vorbis).mkv 231 MB
38 Shinmai Maou no Testament ~Burst~ SP4 (BDRip 1280x720 H.264 Vorbis).mkv 241 MB
39 Shinmai Maou no Testament ~Burst~ SP5 (BDRip 1280x720 H.264 Vorbis).mkv 179 MB
Profile PM
Показать сообщения:    
Ответить на тему

Текущее время: 15-Окт 09:24

Часовой пояс: GMT + 3



Вы не можете начинать темы
Вы не можете отвечать на сообщения
Вы не можете редактировать свои сообщения
Вы не можете удалять свои сообщения
Вы не можете голосовать в опросах
Вы не можете прикреплять файлы к сообщениям
Вы можете скачивать файлы
[  Execution time: 0.078 sec  |  MySQL: 0.076 sec (98%) in 23 queries  |  Mem: 410.98 KB / 1.46 MB / 1.04 MB  |  Load: 0.5 0.4 0.5  ]