Loading...
Error

D.Gray-man | Ди Грэй-мен [2006 — 2008, комедия, магия, приключения, сверхспособности, сёнэн, фэнтези] [BDrip, DVDrip, 720p, 480p] [JPN, субтитры: rus] (103)

Ответить на тему
Показать список качающих/скачавших
Размер: 34.04 GB
Зарегистрирован: 2 года 6 месяцев
Скачан: 3 раза

Сидов:

Имя UL
Ratio
Передано Скорость Провайдер
up down up down
batyrmastyr ®  0.1 2.03 GB - - - Не определен
показаны данные только за текущую сессию
 
     
 
 
Автор Сообщение

batyrmastyr

Стаж: 11 лет

Сообщений: 6495

Откуда: Sekai

Провайдер: Не определен

Пол: Не определилось

Он-лайн: Нет

Карма: +33.44

D.Gray-man
Ди Грэй-мен
ディー・グレイマン


Тип: ТВ сериал

pic
Жанры: комедия, магия, приключения, сверхспособности, сёнэн, фэнтези
Длительность: 103 эп. по 25 мин.
Время выхода: c 03.10.2006 по 30.09.2008
Страна: Япония

Режиссёр: Набэсима Осаму
Сценарист: Ёсида Рэйко
Снято по: манге D.Gray-man
Автор оригинала: Хосино Кацура
Студия: TMS Entertainment

Описание:
Действие D.Gray-man разворачивается в альтернативной Европе XIX века и рассказывает о Тысячелетнем Графе, строящем планы по уничтожению мира, при помощи созданных им Акума (яп. 悪魔 акума?, Демон) — человекоподобных существ, представляющих собой живые орудия и соединяющих в себе душу умершего человека и механическое тело, и экзорцистах, которые освобождают души умерших людей путём уничтожения Акума. Экзорцисты состоят в некой огромной организации, которая существует 100 лет, ищет сердце «Чистой силы» и называется Чёрный Орден (яп. 黒の教団 Куро но кё:дан?).

Экзорцисты — это особенные люди, наделенные взаимосвязью с «Чистой Силой», божественной субстанцией, созданной много веков назад для того, чтобы бороться с созданиями Графа. Известно, что Чистая Сила в виде 109 частей разбросана по всему миру. Как только частица Чистой Силы вступит во взаимосвязь с подходящим человеком, она может быть превращена в оружие для борьбы с Акума.

Целью Тысячелетнего Графа и его слуг также является поиск так называемого «Сердца Чистой Силы». Это особая форма Чистой Силы, которая обеспечивает существование всех остальных 109 частей. Уничтожение Сердца приведёт к уничтожению остальных частей. © Википедия


В энциклопедиях:   AniDB  |  World Art  |  Википедия

  • Эпизоды:
    • 001-013
    Качество видео:
    • BDrip
    Видео:
    • AVC, 1280 * 720, 2 377 кбит/с
    Аудио:
    • Японская | AC-3, 2 канала, 640 кбит/с - оригинальная, в контейнере
    Субтитры:


  • Эпизоды:
    • 014-103
    Качество видео:
    Видео:
    • AVC, 718 * 478, 1 571 кбит/с
    Аудио:
    • Японская | AC-3, 2 канала, 448 кбит/с - оригинальная, в контейнере
    Субтитры:


Скриншоты:
pic pic pic pic pic pic pic pic pic pic pic pic pic pic pic pic pic pic pic pic pic
Параметры видео | аудио:
001-013
General
Unique ID : 150680940815249362196494832352031140251 (0x715C17F5EFE87A091049CDDB2DFFE99B)
Complete name : /Users/batyrmastyr/Desktop/_VID/D.Gray-Man [2006, BDrip, DVDrip]/D.Gray-man - 001 [BDrip H.264 AC-3 720p].mkv
Format : Matroska
Format version : Version 2
File size : 504 MiB
Duration : 22mn 52s
Overall bit rate : 3 078 Kbps
Movie name : D.Gray-man - Ep 001 - The Boy Who Hunts Akuma
Encoded date : UTC 2016-05-17T00:46:44Z
Writing application : HandBrake 0.10.5 2016021100
Writing library : Lavf55.12.0

Video
ID : 1
Format : AVC
Format/Info : Advanced Video Codec
Format profile : High@L4.0
Format settings, CABAC : Yes
Format settings, ReFrames : 6 frames
Codec ID : V_MPEG4/ISO/AVC
Duration : 22mn 52s
Bit rate : 2 377 Kbps
Width : 1 280 pixels
Height : 720 pixels
Display aspect ratio : 16:9
Frame rate mode : Constant
Frame rate : 23.976 fps
Color space : YUV
Chroma subsampling : 4:2:0
Bit depth : 8 bits
Scan type : Progressive
Bits/(Pixel*Frame) : 0.108
Stream size : 389 MiB (77%)
Writing library : x264 core 142 r2479 dd79a61
Encoding settings : cabac=1 / ref=6 / deblock=1:0:0 / analyse=0x3:0x133 / me=umh / subme=10 / psy=1 / psy_rd=1.00:0.00 / mixed_ref=1 / me_range=16 / chroma_me=1 / trellis=2 / 8x8dct=1 / cqm=0 / deadzone=21,11 / fast_pskip=1 / chroma_qp_offset=-2 / threads=12 / lookahead_threads=1 / sliced_threads=0 / nr=0 / decimate=1 / interlaced=0 / bluray_compat=0 / constrained_intra=0 / bframes=3 / b_pyramid=2 / b_adapt=2 / b_bias=0 / direct=3 / weightb=1 / open_gop=0 / weightp=1 / keyint=240 / keyint_min=24 / scenecut=40 / intra_refresh=0 / rc_lookahead=40 / rc=crf / mbtree=1 / crf=15.0 / qcomp=0.60 / qpmin=7 / qpmax=20 / qpstep=4 / ip_ratio=1.40 / aq=1:1.00
Default : Yes
Forced : No
Color primaries : BT.709
Transfer characteristics : BT.709
Matrix coefficients : BT.709

Audio
ID : 2
Format : AC-3
Format/Info : Audio Coding 3
Mode extension : CM (complete main)
Format settings, Endianness : Big
Codec ID : A_AC3
Duration : 22mn 52s
Bit rate mode : Constant
Bit rate : 640 Kbps
Channel(s) : 2 channels
Channel positions : Front: L R
Sampling rate : 48.0 KHz
Bit depth : 16 bits
Compression mode : Lossy
Stream size : 105 MiB (21%)
Title : Stereo
Language : Japanese
Default : Yes
Forced : No
014-103
General
Unique ID : 190055671413312560031213183271211029441 (0x8EFB640FE558D59C01E67B88C3B2D3C1)
Complete name : /Users/batyrmastyr/Desktop/_VID/D.Gray-Man [2006, BDrip, DVDrip]/D.Gray-man - 014 [DVDrip H.264 AC-3 480p].mkv
Format : Matroska
Format version : Version 4 / Version 2
File size : 337 MiB
Duration : 22mn 54s
Overall bit rate : 2 060 Kbps
Movie name : D.Gray-man - 014
Encoded date : UTC 2016-05-22 19:24:51
Writing application : mkvmerge v9.1.0 ('Little Earthquakes') 64bit
Writing library : libebml v1.3.3 + libmatroska v1.4.4

Video
ID : 1
Format : AVC
Format/Info : Advanced Video Codec
Format profile : High@L3.1
Format settings, CABAC : Yes
Format settings, ReFrames : 12 frames
Codec ID : V_MPEG4/ISO/AVC
Bit rate : 1 571 Kbps
Width : 718 pixels
Height : 478 pixels
Display aspect ratio : 16:9
Original display aspect ratio : 16:9
Frame rate mode : Variable
Color space : YUV
Chroma subsampling : 4:2:0
Bit depth : 8 bits
Scan type : Progressive
Writing library : x264 core 142 r2479 dd79a61
Encoding settings : cabac=1 / ref=12 / deblock=1:0:0 / analyse=0x3:0x133 / me=umh / subme=9 / psy=1 / psy_rd=1.00:0.00 / mixed_ref=1 / me_range=24 / chroma_me=1 / trellis=1 / 8x8dct=1 / cqm=0 / deadzone=21,11 / fast_pskip=1 / chroma_qp_offset=-2 / threads=12 / lookahead_threads=1 / sliced_threads=0 / nr=0 / decimate=1 / interlaced=0 / bluray_compat=0 / constrained_intra=0 / bframes=2 / b_pyramid=2 / b_adapt=2 / b_bias=0 / direct=3 / weightb=1 / open_gop=0 / weightp=1 / keyint=300 / keyint_min=30 / scenecut=40 / intra_refresh=0 / rc_lookahead=40 / rc=crf / mbtree=1 / crf=15.0 / qcomp=0.60 / qpmin=7 / qpmax=20 / qpstep=4 / ip_ratio=1.40 / aq=1:1.00
Default : Yes
Forced : No
Color primaries : BT.601 NTSC
Transfer characteristics : BT.709
Matrix coefficients : BT.601
DURATION : 00:22:54.062000000
NUMBER_OF_FRAMES : 35675
NUMBER_OF_BYTES : 276527986
_STATISTICS_WRITING_APP : mkvmerge v9.1.0 ('Little Earthquakes') 64bit
_STATISTICS_WRITING_DATE_UTC : 2016-05-22 19:24:51
_STATISTICS_TAGS : BPS DURATION NUMBER_OF_FRAMES NUMBER_OF_BYTES

Audio
ID : 2
Format : AC-3
Format/Info : Audio Coding 3
Mode extension : CM (complete main)
Format settings, Endianness : Big
Codec ID : A_AC3
Duration : 22mn 54s
Bit rate mode : Constant
Bit rate : 448 Kbps
Channel(s) : 2 channels
Channel positions : Front: L R
Sampling rate : 48.0 KHz
Bit depth : 16 bits
Compression mode : Lossy
Stream size : 73.4 MiB (22%)
Title : Stereo
Language : Japanese
Default : Yes
Forced : No
DURATION : 00:22:53.856000000
NUMBER_OF_FRAMES : 42933
NUMBER_OF_BYTES : 76935936
_STATISTICS_WRITING_APP : mkvmerge v9.1.0 ('Little Earthquakes') 64bit
_STATISTICS_WRITING_DATE_UTC : 2016-05-22 19:24:51
_STATISTICS_TAGS : BPS DURATION NUMBER_OF_FRAMES NUMBER_OF_BYTES

Внимание! Вы не авторизировались - скачанный по ссылкам ниже торрент не будет учитываться в вашем личном профиле.

D.Gray-Man [2006, BDrip, DVDrip].torrent
Трекер: Зарегистрирован

Торрент


Magnet

Зарегистрирован: 2016-07-10 11:34
Скачан: 3 раз
Размер: 34.04 GB
Оценка: - (Голосов: 0)
Поблагодарили: 0
 
Список файлов
# \ Папка Размер


Последний раз редактировалось: batyrmastyr (2016-07-10 11:34), всего редактировалось 2 раз(а)
Profile PM

batyrmastyr

Стаж: 11 лет

Сообщений: 6495

Откуда: Sekai

Провайдер: Не определен

Пол: Не определилось

Он-лайн: Нет

Карма: +33.44

post 16-Июн-2016 00:01 (спустя 24 дня)
Субтитры, тайминг может гулять.
Прикреплённый файл

_________________
pic
я несу глупость во имя бака-тим
Gundam Team
Yuri TEAM
Термины


Последний раз редактировалось: batyrmastyr (2016-08-19 22:27), всего редактировалось 1 раз
Profile PM

batyrmastyr

Стаж: 11 лет

Сообщений: 6495

Откуда: Sekai

Провайдер: Не определен

Пол: Не определилось

Он-лайн: Нет

Карма: +33.44

post 16-Июн-2016 01:18 (спустя 1 час 17 минут)
До 59-й

_________________
pic
я несу глупость во имя бака-тим
Gundam Team
Yuri TEAM
Термины
Profile PM

batyrmastyr

Стаж: 11 лет

Сообщений: 6495

Откуда: Sekai

Провайдер: Не определен

Пол: Не определилось

Он-лайн: Нет

Карма: +33.44

post 10-Июл-2016 11:35 (спустя 24 дня)
До конца.

_________________
pic
я несу глупость во имя бака-тим
Gundam Team
Yuri TEAM
Термины
Profile PM
Показать сообщения:    
Ответить на тему

Текущее время: 21-Янв 23:43

Часовой пояс: GMT + 3



Вы не можете начинать темы
Вы не можете отвечать на сообщения
Вы не можете редактировать свои сообщения
Вы не можете удалять свои сообщения
Вы не можете голосовать в опросах
Вы не можете прикреплять файлы к сообщениям
Вы можете скачивать файлы
[  Execution time: 0.050 sec  |  MySQL: 0.071 sec (141%) in 21 queries  |  Mem: 410.52 KB / 1.5 MB / 1.07 MB  |  Load: 0.6 0.9 0.8  ]