Loading...
Error

Shounen Maid | Маленький домработник [2016, комедия, повседневность, сёдзё] [TVrip, 720p] [JPN, субтитры: rus] (12 + 1)

Ответить на тему
Показать список качающих/скачавших
Размер: 4.42 GB
Зарегистрирован: 2 года 6 месяцев
Скачан: 0 раз

Полного источника не было: 51 минута

 
     
 
 
Автор Сообщение

batyrmastyr

Стаж: 11 лет

Сообщений: 6505

Откуда: Sekai

Провайдер: Не определен

Пол: Otoko (M)

Он-лайн: Нет

Карма: +33.73

Shounen Maid
Маленький домработник
少年メイド


Тип: ТВ сериал

pic
Жанры: комедия, повседневность, сёдзё
Длительность: 12 эп. по 25 мин. + не попавшая в ТВ-показ серия 8,5
Время выхода: c 08.04.2016 по 01.07.2016
Страна: Япония

Режиссёр: Ямамото Юсукэ
Сценарист: Накамура Ёсико
Снято по: манге Shounen Maid
Автор оригинала: Ототатибана
Студия: 8-Bit

Описание:
Мальчик Комия Тихиро учится в начальной школе, любит чистоту и порядок в доме. Но он остался совсем один, потеряв мать. Его дядя Такатори Мадока протягивает руку помощи, но Тихиро отказывается, со словами: «Помощь мне не нужна». Однако увидев, какой бардак творится в особняке дяди, мальчик не выдерживает и затевает большую уборку! Тогда Мадока предлагает ему сделку… © Саня Литвяк


В энциклопедиях:   AniDB  |  World Art  |  Википедия

  • Источник релиза:
    • [Leopard-Raws]
    Качество видео:
    • TVrip
    Видео:
    • AVC, 1280 * 720, 1 618 кбит/с
    Аудио:
    • Японская | AAC, 2 канала, 192 кбит/с - оригинальная, в контейнере
    Субтитры:


Скриншоты:
pic pic pic pic pic pic pic pic pic pic pic
Параметры видео | аудио:
General
Complete name : /Volumes/t/ongoing/Shounen Maid [2016, TVrip]/[Leopard-Raws] Shounen Maid - 01 RAW (TBS 1280x720 x264 AAC).mp4
Format : MPEG-4
Format profile : Base Media
Codec ID : isom
File size : 318 MiB
Duration : 24mn 30s
Overall bit rate mode : Variable
Overall bit rate : 1 814 Kbps
Encoded date : UTC 2016-04-08 08:49:12
Tagged date : UTC 2016-04-08 08:49:12

Video
ID : 1
Format : AVC
Format/Info : Advanced Video Codec
Format profile : High@L4.1
Format settings, CABAC : Yes
Format settings, ReFrames : 4 frames
Codec ID : avc1
Codec ID/Info : Advanced Video Coding
Duration : 24mn 29s
Bit rate : 1 618 Kbps
Maximum bit rate : 13.1 Mbps
Width : 1 280 pixels
Height : 720 pixels
Display aspect ratio : 16:9
Frame rate mode : Constant
Frame rate : 23.976 fps
Color space : YUV
Chroma subsampling : 4:2:0
Bit depth : 8 bits
Scan type : Progressive
Bits/(Pixel*Frame) : 0.073
Stream size : 284 MiB (89%)
Title : 264:fps=23.976@GPAC0.5.1-DEV-rev4929
Writing library : x264 core 129 r2245+729M 1a52e03
Encoding settings : cabac=1 / ref=4 / deblock=1:1:-1 / analyse=0x3:0x113 / me=umh / subme=9 / psy=1 / fade_compensate=0.00 / psy_rd=1.00:0.00 / mixed_ref=1 / me_range=24 / chroma_me=1 / trellis=2 / 8x8dct=1 / cqm=0 / deadzone=21,11 / fast_pskip=1 / chroma_qp_offset=-2 / threads=8 / lookahead_threads=1 / sliced_threads=0 / nr=0 / decimate=1 / interlaced=0 / bluray_compat=0 / constrained_intra=0 / fgo=0 / bframes=9 / b_pyramid=2 / b_adapt=2 / b_bias=0 / direct=1 / weightb=1 / open_gop=0 / weightp=2 / keyint=240 / keyint_min=24 / scenecut=40 / intra_refresh=0 / rc=crf / mbtree=0 / crf=17.5 / qcomp=0.72 / qpmin=0 / qpmax=69 / qpstep=4 / ip_ratio=1.40 / pb_ratio=1.30 / aq=1:0.85
Encoded date : UTC 2016-04-08 08:49:12
Tagged date : UTC 2016-04-08 08:49:14
Color primaries : BT.709
Transfer characteristics : BT.709
Matrix coefficients : BT.709

Audio
ID : 2
Format : AAC
Format/Info : Advanced Audio Codec
Format profile : LC
Codec ID : 40
Duration : 24mn 30s
Bit rate mode : Variable
Bit rate : 192 Kbps
Maximum bit rate : 227 Kbps
Channel(s) : 2 channels
Channel positions : Front: L R
Sampling rate : 48.0 KHz
Compression mode : Lossy
Stream size : 33.6 MiB (11%)
Language : Japanese
Encoded date : UTC 2016-04-07 19:33:56
Tagged date : UTC 2016-04-08 08:49:14

Внимание! Вы не авторизировались - скачанный по ссылкам ниже торрент не будет учитываться в вашем личном профиле.

Shounen Maid [2016, TVrip].torrent
Трекер: Зарегистрирован

Торрент


Magnet

Зарегистрирован: 2016-11-20 22:51
Скачан: 0 раз
Размер: 4.42 GB
Оценка: - (Голосов: 0)
Поблагодарили: 0
 
Список файлов
# \ Папка Shounen Maid [2016, TVrip] Размер
1 [Leopard-Raws] Shounen Maid - 01 RAW (TBS 1280x720 x264 AAC).ass 36 KB
2 [Leopard-Raws] Shounen Maid - 01 RAW (TBS 1280x720 x264 AAC).mp4 318 MB
3 [Leopard-Raws] Shounen Maid - 02 RAW (TBS 1280x720 x264 AAC).ass 45 KB
4 [Leopard-Raws] Shounen Maid - 02 RAW (TBS 1280x720 x264 AAC).mp4 324 MB
5 [Leopard-Raws] Shounen Maid - 03 RAW (TBS 1280x720 x264 AAC).ass 40 KB
6 [Leopard-Raws] Shounen Maid - 03 RAW (TBS 1280x720 x264 AAC).mp4 329 MB
7 [Leopard-Raws] Shounen Maid - 04 RAW (TBS 1280x720 x264 AAC).ass 41 KB
8 [Leopard-Raws] Shounen Maid - 04 RAW (TBS 1280x720 x264 AAC).mp4 344 MB
9 [Leopard-Raws] Shounen Maid - 05 RAW (TBS 1280x720 x264 AAC).ass 36 KB
10 [Leopard-Raws] Shounen Maid - 05 RAW (TBS 1280x720 x264 AAC).mp4 335 MB
11 [Leopard-Raws] Shounen Maid - 06 RAW (TBS 1280x720 x264 AAC).ass 44 KB
12 [Leopard-Raws] Shounen Maid - 06 RAW (TBS 1280x720 x264 AAC).mp4 389 MB
13 [Leopard-Raws] Shounen Maid - 07 RAW (TBS 1280x720 x264 AAC).ass 45 KB
14 [Leopard-Raws] Shounen Maid - 07 RAW (TBS 1280x720 x264 AAC).mp4 345 MB
15 [Leopard-Raws] Shounen Maid - 08 RAW (TBS 1280x720 x264 AAC).ass 44 KB
16 [Leopard-Raws] Shounen Maid - 08 RAW (TBS 1280x720 x264 AAC).mp4 342 MB
17 [Leopard-Raws] Shounen Maid - 09 RAW (TBS 1280x720 x264 AAC).ass 40 KB
18 [Leopard-Raws] Shounen Maid - 09 RAW (TBS 1280x720 x264 AAC).mp4 362 MB
19 [Leopard-Raws] Shounen Maid - 10 RAW (TBS 1280x720 x264 AAC).ass 36 KB
20 [Leopard-Raws] Shounen Maid - 10 RAW (TBS 1280x720 x264 AAC).mp4 356 MB
21 [Leopard-Raws] Shounen Maid - 11 RAW (TBS 1280x720 x264 AAC).ass 42 KB
22 [Leopard-Raws] Shounen Maid - 11 RAW (TBS 1280x720 x264 AAC).mp4 357 MB
23 [Leopard-Raws] Shounen Maid - 12 END (TBS 1280x720 x264 AAC).ass 35 KB
24 [Leopard-Raws] Shounen Maid - 12 END (TBS 1280x720 x264 AAC).mp4 365 MB
25 [Ohys-Raws] Shounen Maid - 08.5 (BD 1280x720 x264 AAC).ass 43 KB
26 [Ohys-Raws] Shounen Maid - 08.5 (BD 1280x720 x264 AAC).mp4 353 MB


Последний раз редактировалось: batyrmastyr (2016-11-20 22:51), всего редактировалось 7 раз(а)
Profile PM

post 04-Июл-2016 23:40 (спустя 1 месяц 20 дней)
Тема была перенесена из форума Ongoing в форум ТВ

Причина: Сериал выложен полностью

batyrmastyr
 
Показать сообщения:    
Ответить на тему

Текущее время: 18-Июн 23:48

Часовой пояс: GMT + 3



Вы не можете начинать темы
Вы не можете отвечать на сообщения
Вы не можете редактировать свои сообщения
Вы не можете удалять свои сообщения
Вы не можете голосовать в опросах
Вы не можете прикреплять файлы к сообщениям
Вы можете скачивать файлы
[  Execution time: 0.059 sec  |  MySQL: 0.088 sec (150%) in 21 queries  |  Mem: 410.68 KB / 1.47 MB / 1.03 MB  |  Load: 1.6 2.4 2.5  ]