Loading...
Error

Majokko Shimai no Yoyo to Nene | Сестры-колдуньи Йойо и Нэнэ [2013, девочки-волшебницы] [BDrip, 720p] [JPN, субтитры: rus] (1)

Ответить на тему
Показать список качающих/скачавших
Размер: 3.62 GB
Зарегистрирован: 3 года 1 месяц
Скачан: 0 раз

Сидов:

Имя UL
Ratio
Передано Скорость Провайдер
up down up down
batyrmastyr ®  0 - - - - Не определен
показаны данные только за текущую сессию
 
     
 
 
Автор Сообщение

batyrmastyr

Стаж: 11 лет

Сообщений: 6501

Откуда: Sekai

Провайдер: ТТК

Пол: Otoko (M)

Он-лайн: Да

Карма: +33.55

Majokko Shimai no Yoyo to Nene
Сестры-колдуньи Йойо и Нэнэ
魔女っこ姉妹のヨヨとネネ


Тип: полнометражный фильм

pic
Жанры: девочки-волшебницы
Длительность: 1 эп. по 100 мин.
Время выхода: 28.12.2013
Страна: Япония

Режиссёр: Хирао Такаюки
Автор оригинала: Хирарин
Студия: UFO Table

Описание:
Жизнь сестер Йойо и Нэнэ полна забот. Но для наших героинь нет ничего невозможного! Даже победа над огромным монстром становится для них легкой задачей. Старшая из сестер, Нэнэ, — колдунья высшего класса, а вот магические способности малышки Йойо пока что совсем не велики. Но у зеленоволосой бестии явно великие планы на будущее.


В энциклопедиях:   AniDB  |  Википедия  |  World Art

  • Качество видео:
    • BDrip
    Видео:
    • AVC, 1280 * 560, 4 830 кбит/с
    Аудио:
    • Японская | Vorbis, 2 канала, 224 кбит/с - оригинальная, в контейнере
    Субтитры:
    • Русские - внешними файлами - [Timecraft & GMC] - DARio, Schum, Buka63, AoZaki, atom4ik


Скриншоты:
pic pic pic pic pic pic pic pic pic pic pic pic pic pic
Параметры видео | аудио:
General
Unique ID : 115588435053873412663919590050080765449 (0x56F585D827A4DDAE18791728E0883609)
Complete name : /Users/batyrmastyr/Desktop/_VID/Majokko Shimai no Yoyo to Nene [2013, BDrip, 720p]/Majokko Shimai no Yoyo to Nene (BDRip 1280x720 H.264 Vorbis).mkv
Format : Matroska
Format version : Version 4 / Version 2
File size : 3.61 GiB
Duration : 1h 40mn
Overall bit rate mode : Variable
Overall bit rate : 5 156 Kbps
Movie name : Majokko Shimai no Yoyo to Nene
Encoded date : UTC 2016-02-10 17:55:58
Writing application : mkvmerge v8.8.0 ('Wind at my back') 64bit
Writing library : libebml v1.3.3 + libmatroska v1.4.4

Video
ID : 1
Format : AVC
Format/Info : Advanced Video Codec
Format profile : High@L3.1
Format settings, CABAC : Yes
Format settings, ReFrames : 6 frames
Codec ID : V_MPEG4/ISO/AVC
Duration : 1h 40mn
Bit rate : 4 830 Kbps
Width : 1 280 pixels
Height : 560 pixels
Display aspect ratio : 2.35:1
Frame rate mode : Constant
Frame rate : 23.976 fps
Color space : YUV
Chroma subsampling : 4:2:0
Bit depth : 8 bits
Scan type : Progressive
Bits/(Pixel*Frame) : 0.281
Stream size : 3.38 GiB (94%)
Writing library : x264 core 142 r2479 dd79a61
Encoding settings : cabac=1 / ref=6 / deblock=1:0:0 / analyse=0x3:0x133 / me=umh / subme=10 / psy=1 / psy_rd=1.00:0.00 / mixed_ref=1 / me_range=16 / chroma_me=1 / trellis=2 / 8x8dct=1 / cqm=0 / deadzone=21,11 / fast_pskip=1 / chroma_qp_offset=-2 / threads=12 / lookahead_threads=1 / sliced_threads=0 / nr=0 / decimate=1 / interlaced=0 / bluray_compat=0 / constrained_intra=0 / bframes=3 / b_pyramid=2 / b_adapt=2 / b_bias=0 / direct=3 / weightb=1 / open_gop=0 / weightp=1 / keyint=240 / keyint_min=24 / scenecut=40 / intra_refresh=0 / rc_lookahead=40 / rc=crf / mbtree=1 / crf=15.0 / qcomp=0.60 / qpmin=7 / qpmax=20 / qpstep=4 / ip_ratio=1.40 / aq=1:1.00
Default : Yes
Forced : No
Color primaries : BT.709
Transfer characteristics : BT.709
Matrix coefficients : BT.709
DURATION : 01:40:20.014000000
NUMBER_OF_FRAMES : 144336
NUMBER_OF_BYTES : 3722549989
_STATISTICS_WRITING_APP : mkvmerge v8.8.0 ('Wind at my back') 64bit
_STATISTICS_WRITING_DATE_UTC : 2016-02-10 17:55:58
_STATISTICS_TAGS : BPS DURATION NUMBER_OF_FRAMES NUMBER_OF_BYTES

Audio
ID : 2
Format : Vorbis
Format settings, Floor : 1
Codec ID : A_VORBIS
Duration : 1h 40mn
Bit rate mode : Variable
Bit rate : 224 Kbps
Channel(s) : 2 channels
Sampling rate : 48.0 KHz
Compression mode : Lossy
Stream size : 161 MiB (4%)
Title : Stereo
Writing library : aoTuV 20110424 (UTC 2011-04-24)
Language : Japanese
Default : Yes
Forced : No
DURATION : 01:40:19.952000000
NUMBER_OF_FRAMES : 617512
NUMBER_OF_BYTES : 155113910
_STATISTICS_WRITING_APP : mkvmerge v8.8.0 ('Wind at my back') 64bit
_STATISTICS_WRITING_DATE_UTC : 2016-02-10 17:55:58
_STATISTICS_TAGS : BPS DURATION NUMBER_OF_FRAMES NUMBER_OF_BYTES
Writing application : HandBrake

Внимание! Вы не авторизировались - скачанный по ссылкам ниже торрент не будет учитываться в вашем личном профиле.

Majokko Shimai no Yoyo to Nene [2013, BDrip, 720p].torrent
Трекер: Зарегистрирован

Торрент


Magnet

Зарегистрирован: 2016-02-11 00:10
Скачан: 0 раз
Размер: 3.62 GB
Оценка: - (Голосов: 0)
Поблагодарили: 0
 
Список файлов
# \ Папка Majokko Shimai no Yoyo to Nene [2013, BDrip, 720p] Размер
1 Majokko Shimai no Yoyo to Nene (BDRip 1280x720 H.264 Vorbis).ass 484 KB
2 Majokko Shimai no Yoyo to Nene (BDRip 1280x720 H.264 Vorbis).mkv 3.61 GB
3 Шрифты / AmazOOSTROVCrazy!.ttf 14 KB
4 Шрифты / Arial.ttf 755 KB
5 Шрифты / arnamu.ttf 234 KB
6 Шрифты / BIZARG__.TTF 16 KB
7 Шрифты / calibri.ttf 792 KB
8 Шрифты / calibrib.ttf 829 KB
9 Шрифты / CORBEL.TTF 200 KB
10 Шрифты / corbelb.ttf 268 KB
11 Шрифты / Designosaur-Regular.ttf 181 KB
12 Шрифты / elmerp-henneko.ttf 195 KB
13 Шрифты / GOTHICB.TTF 127 KB
14 Шрифты / POLO.TTF 43 KB
15 Шрифты / Verdana.ttf 182 KB
16 Шрифты / Viktors Littl Creepy Horror.ttf 47 KB
Profile PM
Показать сообщения:    
Ответить на тему

Текущее время: 20-Мар 08:14

Часовой пояс: GMT + 3



Вы не можете начинать темы
Вы не можете отвечать на сообщения
Вы не можете редактировать свои сообщения
Вы не можете удалять свои сообщения
Вы не можете голосовать в опросах
Вы не можете прикреплять файлы к сообщениям
Вы можете скачивать файлы
[  Execution time: 0.066 sec  |  MySQL: 0.028 sec (43%) in 21 queries  |  Mem: 410.51 KB / 1.46 MB / 1.02 MB  |  Load: 2.7 2.5 2.7  ]