Loading...
Error

Gekijouban Psycho-Pass | Психопаспорт [2015, боевик, полиция, меха, фантастика] [BDrip, 720p] [JPN, субтитры: rus] (1)

Ответить на тему
Показать список качающих/скачавших
Размер: 3.19 GB
Зарегистрирован: 3 года 6 месяцев
Скачан: 3 раза

Сидов:

Имя UL
Ratio
Передано Скорость Провайдер
up down up down
batyrmastyr ®  0 - - - - Не определен
показаны данные только за текущую сессию
 
     
 
 
Автор Сообщение

batyrmastyr

Стаж: 11 лет

Сообщений: 6501

Откуда: Sekai

Провайдер: ТТК

Пол: Otoko (M)

Он-лайн: Нет

Карма: +33.55

Gekijouban Psycho-Pass
Психопаспорт
Psycho-Pass: Der Film


Тип: полнометражный фильм

pic
Жанры: боевик, полиция, меха, фантастика
Длительность: 1 эп. по 115 мин.
Время выхода: 09.01.2015
Страна: Япония

Режиссёр: Сиотани Наоёси
Автор оригинала: Уробути Гэн
Студия: Production I.G

Описание:
2116 год. Японское правительство начинает экспортировать автономных роботов-дронов с системой Сивиллы в «проблемные» страны, и Сивилла распространяется по всему миру. В качестве эксперимента решается запустить Сивиллу в СЮВАС (Союз Юго-Восточных Азиатских Стран) — государство, истерзанное гражданской войной. Опыт оказался удачным, и благодаря новой системе прибрежный город Шамбала начинает благоденствовать в обстановке временного перемирия и безопасности. Однако затем СЮВАС посылает в Японию своих агентов с целью совершить теракт. Те успешно проникают сквозь охрану Сивиллы и наносят удар изнутри. Подозрение падает на конкретного человека. Ответственная за проведение расследования, офицер Цунэмори отправляется в Шамбалу. Истинная справедливость восстановит свою чистоту на новой земле.
© Shikimori


В энциклопедиях:   AniDB  |  World Art  |  Википедия

  • Качество видео:
    • BDrip
    Видео:
    • AVC, 1280 * 720, 3 710 кбит/с
    Аудио:
    • Японская | Vorbis, 2 канала, 224 кбит/с - оригинальная, в контейнере
    Субтитры:
    • Русские - внешними файлами - [GMC] - Jarly, Nerevar, Sovereign, St_Ranger


Скриншоты:
pic pic pic pic pic pic pic pic pic pic pic pic pic pic
Параметры видео | аудио:
General
Unique ID : 37707796156012314830488249229748517055 (0x1C5E41E35A32F8096AF609D01F7CB8BF)
Complete name : /Users/batyrmastyr/Desktop/_VID/Gekijouban Psycho-Pass [2015, BDrip, 720p]/Gekijouban PSYCHO-PASS (BDRip 1280x720 H.264 Vorbis).mkv
Format : Matroska
Format version : Version 4 / Version 2
File size : 3.19 GiB
Duration : 1h 53mn
Overall bit rate mode : Variable
Overall bit rate : 4 014 Kbps
Movie name : Gekijouban PSYCHO-PASS
Encoded date : UTC 2015-08-23 20:09:14
Writing application : mkvmerge v8.0.0 ('Til The Day That I Die') 64bit
Writing library : libebml v1.3.1 + libmatroska v1.4.2

Video
ID : 1
Format : AVC
Format/Info : Advanced Video Codec
Format profile : High@L4.0
Format settings, CABAC : Yes
Format settings, ReFrames : 6 frames
Codec ID : V_MPEG4/ISO/AVC
Duration : 1h 53mn
Bit rate : 3 710 Kbps
Width : 1 280 pixels
Height : 720 pixels
Display aspect ratio : 16:9
Frame rate mode : Constant
Frame rate : 23.976 fps
Color space : YUV
Chroma subsampling : 4:2:0
Bit depth : 8 bits
Scan type : Progressive
Bits/(Pixel*Frame) : 0.168
Stream size : 2.95 GiB (92%)
Writing library : x264 core 142 r2479 dd79a61
Encoding settings : cabac=1 / ref=6 / deblock=1:0:0 / analyse=0x3:0x133 / me=umh / subme=10 / psy=1 / psy_rd=1.00:0.00 / mixed_ref=1 / me_range=16 / chroma_me=1 / trellis=2 / 8x8dct=1 / cqm=0 / deadzone=21,11 / fast_pskip=1 / chroma_qp_offset=-2 / threads=12 / lookahead_threads=1 / sliced_threads=0 / nr=0 / decimate=0 / interlaced=0 / bluray_compat=0 / constrained_intra=0 / bframes=3 / b_pyramid=2 / b_adapt=2 / b_bias=0 / direct=3 / weightb=1 / open_gop=0 / weightp=1 / keyint=240 / keyint_min=24 / scenecut=40 / intra_refresh=0 / rc_lookahead=40 / rc=crf / mbtree=1 / crf=15.0 / qcomp=0.60 / qpmin=7 / qpmax=20 / qpstep=4 / ip_ratio=1.40 / aq=1:1.00
Default : Yes
Forced : No
Color primaries : BT.709
Transfer characteristics : BT.709
Matrix coefficients : BT.709
DURATION : 01:53:41.816000000
NUMBER_OF_FRAMES : 163560
NUMBER_OF_BYTES : 3239041124
_STATISTICS_WRITING_APP : mkvmerge v8.0.0 ('Til The Day That I Die') 64bit
_STATISTICS_WRITING_DATE_UTC : 2015-08-23 20:09:14
_STATISTICS_TAGS : BPS DURATION NUMBER_OF_FRAMES NUMBER_OF_BYTES

Audio
ID : 2
Format : Vorbis
Format settings, Floor : 1
Codec ID : A_VORBIS
Duration : 1h 53mn
Bit rate mode : Variable
Bit rate : 224 Kbps
Channel(s) : 2 channels
Sampling rate : 48.0 KHz
Compression mode : Lossy
Stream size : 182 MiB (6%)
Title : Stereo
Writing library : aoTuV 20110424 (UTC 2011-04-24)
Language : Japanese
Default : Yes
Forced : No
DURATION : 01:53:41.749000000
NUMBER_OF_FRAMES : 799802
NUMBER_OF_BYTES : 180569679
_STATISTICS_WRITING_APP : mkvmerge v8.0.0 ('Til The Day That I Die') 64bit
_STATISTICS_WRITING_DATE_UTC : 2015-08-23 20:09:14
_STATISTICS_TAGS : BPS DURATION NUMBER_OF_FRAMES NUMBER_OF_BYTES
Writing application : HandBrake

Внимание! Вы не авторизировались - скачанный по ссылкам ниже торрент не будет учитываться в вашем личном профиле.

Gekijouban Psycho-Pass [2015, BDrip, 720p].torrent
Трекер: Зарегистрирован

Торрент


Magnet

Зарегистрирован: 2015-08-24 22:50
Скачан: 3 раз
Размер: 3.19 GB
Оценка: - (Голосов: 0)
Поблагодарили: 0
 
Список файлов
# \ Папка Gekijouban Psycho-Pass [2015, BDrip, 720p] Размер
1 BIRCHCTT_0.TTF 46 KB
2 Gekijouban PSYCHO-PASS (BDRip 1280x720 H.264 Vorbis).GMC.ass 148 KB
3 Gekijouban PSYCHO-PASS (BDRip 1280x720 H.264 Vorbis).mkv 3.19 GB
Profile PM
Показать сообщения:    
Ответить на тему

Текущее время: 20-Мар 08:41

Часовой пояс: GMT + 3



Вы не можете начинать темы
Вы не можете отвечать на сообщения
Вы не можете редактировать свои сообщения
Вы не можете удалять свои сообщения
Вы не можете голосовать в опросах
Вы не можете прикреплять файлы к сообщениям
Вы можете скачивать файлы
[  Execution time: 0.023 sec  |  MySQL: 0.022 sec (98%) in 21 queries  |  Mem: 410.53 KB / 1.45 MB / 1.01 MB  |  Load: 2.9 3.4 3.1  ]