Loading...
Error

Gekijouban Mahou Shoujo Madoka Magica | Puella Magi Madoka Magica the Movie | Волшебница Мадока | Волшебница Мадока Магика [2012 - 2013, взросление, девочки-волшебницы, сэйнэн, трагедия] [BDrip, 720p] [JPN, субтитры: rus] (3)

Ответить на тему
Показать список качающих/скачавших
Размер: 10.7 GB
Зарегистрирован: 5 лет 1 месяц
Скачан: 0 раз

Полного источника не было: 1 месяц 28 дней

 
     
 
 
Автор Сообщение

batyrmastyr

Стаж: 11 лет

Сообщений: 6505

Откуда: Sekai

Провайдер: Неизвестен

Пол: Otoko (M)

Он-лайн: Нет

Карма: +33.73

Gekijouban Mahou Shoujo Madoka Magica
Puella Magi Madoka Magica the Movie
Волшебница Мадока
Волшебница Мадока Магика
劇場版 魔法少女まどか☆マギカ


Тип: полнометражный фильм

pic
Жанры: взросление, девочки-волшебницы, сэйнэн, трагедия
Длительность: 3 эп. по 110-130 мин.
Время выхода: 06.10.2012 - 26.10.2013
Страна: Япония

Режиссёр: Симбо Акиюки
Сценарист: Уробути Гэн
Студия: SHAFT

Описание:
14-летняя Мадока Каномэ спокойно жила в современной японской семье с мамой - деловой женщиной, папой-домохозяином и маленьким братиком. Все изменил один неясный сон, где темноволосая девочка, по виду ее ровесница, сражалась с силами зла в каком-то фантасмагорическом мире. Излишне говорить, что утром Мадока увидела ее в школе, и новая знакомая по имени Хомура Акэми прямым текстом заявила - не стоит посторонним лезть не в свое дело. Но как простая, но честная и справедливая японская школьница может остаться в стороне, когда на глазах убивают милого зверька, а привычный мир, похоже, сходит с ума?
© Hollow, World Art


В энциклопедиях:   AniDB  |  World Art  |  World Art  |  Wikipedia

  • Качество видео:
    • BDrip
    Видео:
    • AVC, 1280 * 720, 2 696 кбит/с
    Аудио:
    • Японская | Vorbis, 2 канала, 224 кбит/с - оригинальная, в контейнере
    Субтитры:
    • Русские - внешними файлами - (Архив субтитров на Kage Project)
    • Русские - внешними файлами (во 2-м посте) - [Dreamers Team] - junnes
    • Русские - внешними файлами (во 2-м посте) - Nesitach, Stan WarHammer
    • Русские - внешними файлами (во 2-м посте) - [Shift & Eternal HARO & Timecraft] - Evafan, Sa4ko aka Kiyoso, Reaper, Xellos Slayer, DJATOM, Alex_Myth, matoi-kun
Скриншоты:
pic pic pic pic pic pic pic pic pic pic pic pic pic pic pic pic
Параметры видео | аудио:
General
Unique ID : 9282010797862499085988891849032678101 (0x6FBA6770B5BB819432113BA22F33AD5)
Complete name : /Users/batyrmastyr/Desktop/_VID/Новая папка/Gekijouban Mahou Shoujo Madoka Magika [2012-2013, BDrip, 720p]/Gekijouban Mahou Shoujo Madoka Magika - Part 1 (BDRip 1280x720 x264 Vorbis).mkv
Format : Matroska
File size : 2.73 GiB
Duration : 2h 11mn
Overall bit rate : 2 979 Kbps
Encoded date : UTC 2014-05-11 07:47:49
Writing application : mkvmerge v6.1.0 ('Old Devil') built on Mar 2 2013 22:22:31
Writing library : libebml v1.3.0 + libmatroska v1.4.0

Video
ID : 1
Format : AVC
Format/Info : Advanced Video Codec
Format profile : High@L4.0
Format settings, CABAC : Yes
Format settings, ReFrames : 6 frames
Codec ID : V_MPEG4/ISO/AVC
Duration : 2h 11mn
Bit rate : 2 696 Kbps
Width : 1 280 pixels
Height : 720 pixels
Display aspect ratio : 16:9
Frame rate : 23.976 fps
Color space : YUV
Chroma subsampling : 4:2:0
Bit depth : 8 bits
Scan type : Progressive
Bits/(Pixel*Frame) : 0.122
Stream size : 2.47 GiB (90%)
Writing library : x264 core 130 r2273 b3065e6
Encoding settings : cabac=1 / ref=6 / deblock=1:0:0 / analyse=0x3:0x133 / me=umh / subme=10 / psy=1 / psy_rd=1.00:0.00 / mixed_ref=1 / me_range=16 / chroma_me=1 / trellis=2 / 8x8dct=1 / cqm=0 / deadzone=21,11 / fast_pskip=1 / chroma_qp_offset=-2 / threads=12 / lookahead_threads=1 / sliced_threads=0 / nr=0 / decimate=0 / interlaced=0 / bluray_compat=0 / constrained_intra=0 / bframes=3 / b_pyramid=2 / b_adapt=2 / b_bias=0 / direct=3 / weightb=1 / open_gop=0 / weightp=1 / keyint=240 / keyint_min=24 / scenecut=40 / intra_refresh=0 / rc_lookahead=40 / rc=crf / mbtree=1 / crf=15.0 / qcomp=0.60 / qpmin=7 / qpmax=20 / qpstep=4 / ip_ratio=1.40 / aq=1:1.00
Language : English
Color primaries : BT.709-5, BT.1361, IEC 61966-2-4, SMPTE RP177
Transfer characteristics : BT.709-5, BT.1361
Matrix coefficients : BT.709-5, BT.1361, IEC 61966-2-4 709, SMPTE RP177

Audio
ID : 2
Format : Vorbis
Format settings, Floor : 1
Codec ID : A_VORBIS
Duration : 2h 11mn
Bit rate : 224 Kbps
Channel(s) : 2 channels
Sampling rate : 48.0 KHz
Compression mode : Lossy
Stream size : 210 MiB (8%)
Writing library : aoTuV 20110424 (UTC 2011-04-24)
Language : Japanese
Дополнительная информация:
Первые два фильма являются сокращённой версией сериала.

Имя Мадока значит «спокойная, тихая» (дословно «круглая», ведь круг в буддизме – символ спокойствия и совершенства). Имена остальных героинь тоже значимые: Хомура – «пламя», Саяка – «яркая», Мами – «истинная красота», Хитоми – «зоркая». Имя магического зверька Кюбэя на слух имеет множество значений, от «шарик» до «дарящий». В официальной романизации названия сериала компания Aniplex использовала не английский язык, а латынь. Puella magi переводится как девочка-волшебница.

Мангака Умэ Аоки, автор «Хидамари» и создательница концептуального дизайна героинь «Мадоки», умышленно придала им сходство с персонажами «Солнечных набросков». Так, Мадока напоминает Юно, Саяка похожа на Нори, Мами – на Хиро, Хомура – на Нацумэ.
Раздачи: раз, два
‍>‍‍>‍ ОБСУЖДЕНИЕ ‍<‍‍<‍

Внимание! Вы не авторизировались - скачанный по ссылкам ниже торрент не будет учитываться в вашем личном профиле.

Gekijouban Mahou Shoujo Madoka Magika [2012-2013, BDrip, 720p].torrent
Трекер: Зарегистрирован

Торрент


Magnet

Зарегистрирован: 2014-05-11 12:52
Скачан: 0 раз
Размер: 10.7 GB
Оценка: - (Голосов: 0)
Поблагодарили: 1   (список)
 
Список файлов
# \ Папка Gekijouban Mahou Shoujo Madoka Magika [2012-2013, BDrip, 720p] Размер
1 Gekijouban Mahou Shoujo Madoka Magika - Part 1 (BDRip 1280x720 x264 Vorbis).mkv 2.73 GB
2 Gekijouban Mahou Shoujo Madoka Magika - Part 2 (BDRip 1280x720 x264 Vorbis).mkv 3.04 GB
3 Gekijouban Mahou Shoujo Madoka Magika ~Rebellion~ (BDRip 1280x720 x264 Vorbis).mkv 4.93 GB
4 Шрифты / AGPmod.ttf 65 KB
5 Шрифты / ahronbd.ttf 49 KB
6 Шрифты / aparajb.ttf 211 KB
7 Шрифты / arnamu.ttf 234 KB
8 Шрифты / Arthur Gothic.ttf 64 KB
9 Шрифты / Bangkok Cyr.ttf 61 KB
10 Шрифты / Candara.ttf 213 KB
11 Шрифты / constan.ttf 438 KB
12 Шрифты / constani.ttf 437 KB
13 Шрифты / GOTHICB.TTF 127 KB
14 Шрифты / Lucida Console.ttf 105 KB
15 Шрифты / RAVIE.TTF 73 KB
16 Шрифты / whirl.ttf 419 KB


Последний раз редактировалось: batyrmastyr (2014-05-11 13:04), всего редактировалось 3 раз(а)
Profile PM

batyrmastyr

Стаж: 11 лет

Сообщений: 6505

Откуда: Sekai

Провайдер: Неизвестен

Пол: Otoko (M)

Он-лайн: Нет

Карма: +33.73

post 11-Май-2014 12:54 (спустя 2 минуты)
Субтитры

  • [Dreamers Team] - фильмы 1, 2
  • Nesitach, Stan WarHammer - фильмы 1, 2
  • [Shift & Eternal HARO & Timecraft] - фильм 3-й
Прикреплённый файл

_________________
pic
я несу глупость во имя бака-тим
Gundam Team
Yuri TEAM
Термины
Profile PM

Federal Marshal

Стаж: 10 лет

Сообщений: 4668

Откуда: ВТ

Провайдер: МТС Домашний (IXNN)

Пол: Не определилось

Он-лайн: Нет

Карма: +12.50

post 11-Май-2014 13:22 (спустя 27 минут)
Вах pic
Profile PM
Показать сообщения:    
Ответить на тему

Текущее время: 16-Июн 14:17

Часовой пояс: GMT + 3



Вы не можете начинать темы
Вы не можете отвечать на сообщения
Вы не можете редактировать свои сообщения
Вы не можете удалять свои сообщения
Вы не можете голосовать в опросах
Вы не можете прикреплять файлы к сообщениям
Вы можете скачивать файлы
[  Execution time: 0.070 sec  |  MySQL: 0.077 sec (110%) in 21 queries  |  Mem: 410.68 KB / 1.48 MB / 1.06 MB  |  Load: 3.9 3.8 3.1  ]