Loading...
Error

Fate/Kaleid Liner Prisma Illya (2014) | Судьба: девочка-волшебница Иллия OVA [2014, девочки-волшебницы, пародия, сёнэн, фэнтези, школа] [BDrip, 720p] [JPN, субтитры: rus] (1)

Ответить на тему
Показать список качающих/скачавших
Размер: 442 MB
Зарегистрирован: 5 лет 5 месяцев
Скачан: 3 раза

Полного источника не было: 2 года 2 месяца

 
     
 
 
Автор Сообщение

batyrmastyr

Стаж: 11 лет

Сообщений: 6510

Откуда: Sekai

Провайдер: ТТК

Пол: Otoko (M)

Он-лайн: Нет

Карма: +33.85

Fate/Kaleid Liner Prisma Illya (2014)
Судьба: девочка-волшебница Иллия OVA
Fate/kaleid liner プリズマ☆イリヤ (2014)


Тип: OVA

pic
Жанры: девочки-волшебницы, пародия, сёнэн, фэнтези, школа
Длительность: 1 эп. по 25 мин.
Время выхода: 10.03.2014
Страна: Япония

Режиссёр: Онума Син
Сценарист: Иноэ Кэндзи
Снято по: одноимённой манге
Автор оригинала: Хирояма Хироси
Студия: Silver Link

Описание:
Близится день спортивного фестиваля и школьникам пора бы решить, в каких конкурсах они хотят участвовать. Фанатка соревнований Тацуко рвётся ввести новую дисциплину "ловля угрей", Мию, прослышав о "хорошем призе" намерена участвовать в танцевальном конкурсе. Впрочем, случайно подслушав разговор и узнав, что проигрыш в танцах грозит их учителю серьёзными проблемами, шестеро подружек решают добиться победы вместе.
Действие происходит после сериала.


В энциклопедиях:   AniDB  |  World Art  |  Wikipedia

  • Качество видео:
    • BDrip
    Видео:
    • AVC, 1280 * 720, 2 221 кбит/с
    Аудио:
    • Японская | Vorbis, 2 канала, 224 кбит/с - оригинальная, в контейнере
    Субтитры:
    • Русские - внешними файлами - [GMC] - Koushin, Nerevar, Schum, Tassadar


[BDrip, 1080p]
Дополнительная информация
Бонус к четвёртому тому манги Fate/Kaleid Liner Prisma Illya Drei!!
Скриншоты:
pic pic pic pic pic pic pic pic pic pic pic pic pic
Параметры видео | аудио:
General
Unique ID : 154150291699451887753689118738098565842 (0x73F8442A66DC828DC8A7628FECF232D2)
Complete name : /Users/batyrmastyr/Desktop/_VID/Fate/Kaleid Liner Prisma Illya - OVA [2014, BDrip, 720p]/Fate/Kaleid Liner Prisma Illya - OVA (BDRip 1280x720 x264 Vorbis).mkv
Format : Matroska
File size : 442 MiB
Duration : 24mn 45s
Overall bit rate : 2 495 Kbps
Writing application : HandBrake 0.9.9
Writing library : libmkv 0.6.5

Video
ID : 1
Format : AVC
Format/Info : Advanced Video Codec
Format profile : High@L4.0
Format settings, CABAC : Yes
Format settings, ReFrames : 6 frames
Format settings, GOP : M=4, N=24
Codec ID : V_MPEG4/ISO/AVC
Duration : 24mn 45s
Bit rate : 2 221 Kbps
Width : 1 280 pixels
Height : 720 pixels
Display aspect ratio : 16:9
Frame rate : 23.976 fps
Color space : YUV
Chroma subsampling : 4:2:0
Bit depth : 8 bits
Scan type : Progressive
Bits/(Pixel*Frame) : 0.101
Stream size : 393 MiB (89%)
Writing library : x264 core 130 r2273 b3065e6
Encoding settings : cabac=1 / ref=6 / deblock=1:0:0 / analyse=0x3:0x133 / me=umh / subme=10 / psy=1 / psy_rd=1.00:0.00 / mixed_ref=1 / me_range=16 / chroma_me=1 / trellis=2 / 8x8dct=1 / cqm=0 / deadzone=21,11 / fast_pskip=1 / chroma_qp_offset=-2 / threads=12 / lookahead_threads=1 / sliced_threads=0 / nr=0 / decimate=0 / interlaced=0 / bluray_compat=0 / constrained_intra=0 / bframes=3 / b_pyramid=2 / b_adapt=2 / b_bias=0 / direct=3 / weightb=1 / open_gop=0 / weightp=1 / keyint=240 / keyint_min=24 / scenecut=40 / intra_refresh=0 / rc_lookahead=40 / rc=crf / mbtree=1 / crf=15.0 / qcomp=0.60 / qpmin=7 / qpmax=20 / qpstep=4 / ip_ratio=1.40 / aq=1:1.00
Language : English
Color primaries : BT.709-5, BT.1361, IEC 61966-2-4, SMPTE RP177
Transfer characteristics : BT.709-5, BT.1361
Matrix coefficients : BT.709-5, BT.1361, IEC 61966-2-4 709, SMPTE RP177

Audio
ID : 2
Format : Vorbis
Format settings, Floor : 1
Codec ID : A_VORBIS
Duration : 24mn 45s
Bit rate : 224 Kbps
Channel(s) : 2 channels
Sampling rate : 48.0 KHz
Compression mode : Lossy
Stream size : 39.7 MiB (9%)
Writing library : aoTuV 20110424 (UTC 2011-04-24)
Language : Japanese

Внимание! Вы не авторизировались - скачанный по ссылкам ниже торрент не будет учитываться в вашем личном профиле.

Kaleid Liner Prisma Illya - OVA [2014, BDrip, 720p].torrent
Трекер: Зарегистрирован

Торрент


Magnet

Зарегистрирован: 2014-03-23 13:34
Скачан: 3 раз
Размер: 442 MB
Оценка: - (Голосов: 0)
Поблагодарили: 0
 
Список файлов
# \ Папка Fate/Kaleid Liner Prisma Illya - OVA [2014, BDrip, 720p] Размер
1 Fate/Kaleid Liner Prisma Illya - OVA (BDRip 1280x720 x264 Vorbis).mkv 442 MB


Последний раз редактировалось: batyrmastyr (2014-03-23 14:07), всего редактировалось 2 раз(а)
Profile PM

batyrmastyr

Стаж: 11 лет

Сообщений: 6510

Откуда: Sekai

Провайдер: ТТК

Пол: Otoko (M)

Он-лайн: Нет

Карма: +33.85

post 23-Мар-2014 14:00 (спустя 26 минут)
Субтитры
Прикреплённый файл

_________________
pic
я несу глупость во имя бака-тим
Gundam Team
Yuri TEAM
Термины
Profile PM
Показать сообщения:    
Ответить на тему

Текущее время: 19-Сен 07:37

Часовой пояс: GMT + 3



Вы не можете начинать темы
Вы не можете отвечать на сообщения
Вы не можете редактировать свои сообщения
Вы не можете удалять свои сообщения
Вы не можете голосовать в опросах
Вы не можете прикреплять файлы к сообщениям
Вы можете скачивать файлы
[  Execution time: 0.024 sec  |  MySQL: 0.022 sec (92%) in 21 queries  |  Mem: 410.68 KB / 1.47 MB / 1.03 MB  |  Load: 0.6 0.8 0.8  ]