Loading...
Error

Yozakura Quartet: Hoshi no Umi | Вишнёвый квартет: океан звёзд [2010 - 2011, боевые искусства, комедия, сверхспособности, современное фентези] [BDrip, 720p] [JPN, субтитры: rus] (3)

Ответить на тему
Показать список качающих/скачавших
Размер: 1.16 GB
Зарегистрирован: 5 лет 4 месяца
Скачан: 2 раза

Полного источника не было: 1 год 11 месяцев

 
     
 
 
Автор Сообщение

batyrmastyr

Стаж: 11 лет

Сообщений: 6505

Откуда: Sekai

Провайдер: Не определен

Пол: Otoko (M)

Он-лайн: Нет

Карма: +33.73

Yozakura Quartet: Hoshi no Umi
Вишнёвый квартет: океан звёзд
夜桜四重奏 ~ホシノウミ~


Тип: OVA

pic
Жанры: боевые искусства, комедия, сверхспособности, современное фентези
Длительность: 3 эп. по 30 мин.
Время выхода: 08.10.2010 - 09.11.2011
Страна: Япония

Режиссёр: Сава Рёсукэ
Снято по: манге Yozakura Quartet
Автор оригинала: Ясуда Судзухито
Студия: Tatsunoko

Описание:
В городе Сакурасин, похожем на обычный современный город, люди и ёкаи живут бок о бок в мире и согласии. Тэнгу, уни, кёси (зомби), заклинатели и многие другие создания, приняв человеческий облик, ходят на работу, учатся и отдыхают, не боясь, что их обидят. Разумеется, они сами не должны причинять вред другим, иначе будут наказаны. За порядком следит команда, возглавляемая Акиной из семьи Хиидзуми – только он способен произвести «Настройку», то есть, отослать в потусторонний мир души тех ёкаев, которые утратили контроль над собой и стали опасны.

Акина, шеф Офиса Консультации Жизни Ёкай, не слишком рад, что именно он унаследовал дар «Настройки», ведь большая часть его друзей и коллег – не люди. Но иначе город перестанет быть убежищем для ёкай.

Эта мистическая история состоит не только из поединков с применением сверхъестественных способностей. Даже юные защитники города предпочитает бездельничать в офисе и заниматься обычными делами, чего уж говорить обо всех остальных жителях Сакурасина! Однако некоторым ёкай покоя не даёт тот факт, что извечные враги сумели примириться…
© Расселл Д. Джонс


В энциклопедиях:   AniDB  |  World Art  |  Wikipedia

  • Качество видео:
    • BDrip
    Видео:
    • AVC, 1280 * 720, 1 403 кбит/с
    Аудио:
    • Японская | Vorbis, 2 канала, 160 кбит/с - оригинальная, в контейнере
    Субтитры:
BDrip 1080p
Скриншоты:
pic pic pic pic pic pic pic pic pic pic pic pic pic pic pic pic
Параметры видео | аудио:
General
Unique ID : 36365280276662241687462653173754818992 (0x1B5BB2BEAEC002404F1823E17BD8F1B0)
Complete name : /Users/batyrmastyr/Desktop/_VID/Yozakura Quartet ~Hoshi no Umi~ [2010, BDrip, 720p]/Yozakura Quartet ~Hoshi no Umi~ 01 (BDRip 1280x720 x264 AAC).mkv
Format : Matroska
File size : 327 MiB
Duration : 28mn 42s
Overall bit rate : 1 594 Kbps
Writing application : HandBrake 0.9.9
Writing library : libmkv 0.6.5

Video
ID : 1
Format : AVC
Format/Info : Advanced Video Codec
Format profile : High@L4.0
Format settings, CABAC : Yes
Format settings, ReFrames : 6 frames
Codec ID : V_MPEG4/ISO/AVC
Duration : 28mn 42s
Bit rate : 1 403 Kbps
Width : 1 280 pixels
Height : 720 pixels
Display aspect ratio : 16:9
Frame rate : 23.976 fps
Color space : YUV
Chroma subsampling : 4:2:0
Bit depth : 8 bits
Scan type : Progressive
Bits/(Pixel*Frame) : 0.063
Stream size : 288 MiB (88%)
Writing library : x264 core 130 r2273 b3065e6
Encoding settings : cabac=1 / ref=6 / deblock=1:0:0 / analyse=0x3:0x133 / me=umh / subme=10 / psy=1 / psy_rd=1.00:0.00 / mixed_ref=1 / me_range=16 / chroma_me=1 / trellis=2 / 8x8dct=1 / cqm=0 / deadzone=21,11 / fast_pskip=1 / chroma_qp_offset=-2 / threads=12 / lookahead_threads=1 / sliced_threads=0 / nr=0 / decimate=0 / interlaced=0 / bluray_compat=0 / constrained_intra=0 / bframes=3 / b_pyramid=2 / b_adapt=2 / b_bias=0 / direct=3 / weightb=1 / open_gop=0 / weightp=1 / keyint=240 / keyint_min=24 / scenecut=40 / intra_refresh=0 / rc_lookahead=20 / rc=crf / mbtree=1 / crf=15.5 / qcomp=0.60 / qpmin=7 / qpmax=25 / qpstep=4 / ip_ratio=1.40 / aq=1:1.00
Language : English
Color primaries : BT.709-5, BT.1361, IEC 61966-2-4, SMPTE RP177
Transfer characteristics : BT.709-5, BT.1361
Matrix coefficients : BT.709-5, BT.1361, IEC 61966-2-4 709, SMPTE RP177

Audio
ID : 2
Format : Vorbis
Format settings, Floor : 1
Codec ID : A_VORBIS
Duration : 28mn 42s
Bit rate : 160 Kbps
Channel(s) : 2 channels
Sampling rate : 48.0 KHz
Compression mode : Lossy
Stream size : 32.9 MiB (10%)
Writing library : aoTuV 20110424 (UTC 2011-04-24)
Language : Japanese
Дополнительная информация:
Бонусы к эксклюзивным ограниченным изданиям девятого, десятого и одиннадцатого томов манги.
Желательно посмотреть между 8-й и 9-й сериями сериала Yozakura Quartet: Hana no Uta

Внимание! Вы не авторизировались - скачанный по ссылкам ниже торрент не будет учитываться в вашем личном профиле.

Yozakura Quartet ~Hoshi no Umi~ [2010, BDrip, 720p].torrent
Трекер: Зарегистрирован

Торрент


Magnet

Зарегистрирован: 2014-02-23 14:19
Скачан: 2 раз
Размер: 1.16 GB
Оценка: - (Голосов: 0)
Поблагодарили: 0
 
Список файлов
# \ Папка Yozakura Quartet ~Hoshi no Umi~ [2010, BDrip, 720p] Размер
1 Yozakura Quartet ~Hoshi no Umi~ 01 (BDRip 1280x720 x264 Vorbis).mkv 327 MB
2 Yozakura Quartet ~Hoshi no Umi~ 02 (BDRip 1280x720 x264 Vorbis).mkv 443 MB
3 Yozakura Quartet ~Hoshi no Umi~ 03 (BDRip 1280x720 x264 Vorbis).mkv 419 MB
4 Шрифты / ERASDUS0.TTF 96 KB


Последний раз редактировалось: batyrmastyr (2014-02-23 14:23), всего редактировалось 1 раз
Profile PM

batyrmastyr

Стаж: 11 лет

Сообщений: 6505

Откуда: Sekai

Провайдер: Не определен

Пол: Otoko (M)

Он-лайн: Нет

Карма: +33.73

post 23-Фев-2014 14:19 (спустя 34 секунды)
Субтитры
Прикреплённый файл

_________________
pic
я несу глупость во имя бака-тим
Gundam Team
Yuri TEAM
Термины
Profile PM

fedoRRR

Стаж: 10 лет

Сообщений: 3310

Провайдер: Дом.ru

Пол: Не определилось

Он-лайн: Нет

Карма: +0.05

post 23-Фев-2014 15:48 (спустя 1 час 28 минут)
расшарили 3 вольюма Hana no Uta, вчерась с Алексом запилили/выложили

_________________
pic
"В Генсокё автобусы не ходят "
Profile PM
Показать сообщения:    
Ответить на тему

Текущее время: 25-Июн 03:17

Часовой пояс: GMT + 3



Вы не можете начинать темы
Вы не можете отвечать на сообщения
Вы не можете редактировать свои сообщения
Вы не можете удалять свои сообщения
Вы не можете голосовать в опросах
Вы не можете прикреплять файлы к сообщениям
Вы можете скачивать файлы
[  Execution time: 0.024 sec  |  MySQL: 0.023 sec (99%) in 22 queries  |  Mem: 410.48 KB / 1.48 MB / 1.06 MB  |  Load: 1 1.3 1.2  ]