Loading...
Error

Fairy Tail x Rave | Сказка о Хвосте феи [2013, комедия, сёнэн, эччи] [DVDrip, 480p] [JPN, субтитры: eng+rus] (1)

Ответить на тему
Показать список качающих/скачавших
Размер: 319 MB
Зарегистрирован: 5 лет 9 месяцев
Скачан: 1 раз

Полного источника не было: 1 год 11 месяцев

 
     
 
 
Автор Сообщение

batyrmastyr

Стаж: 11 лет

Сообщений: 6505

Откуда: Sekai

Провайдер: Не определен

Пол: Otoko (M)

Он-лайн: Нет

Карма: +33.73

Fairy Tail x Rave
Сказка о Хвосте феи


Тип: OVA

pic
Жанры: комедия, сёнэн, эччи
Длительность: 1 эп. по 25 мин.
Год выхода: 16.08.2013
Страна: Япония

Режиссёр: Исихира Синдзи (Ishihira Shinji)
Снято по: манге Fairy Tail
Автор оригинала: Масима Хиро (Mashima Hiro)
Студия: A-1 Pictures Inc., Satelight

Описание:
В которой Нацу, Люси и Грей встречают своих двойников... нет! Своих прототипов? Ну, как сказать. Скорее - тоже нет. Встречают они героев другой, более ранней манги Хиро Машимы - "Рейв мастера"! А также сражаются с уже знакомым нам всем злодеем? Каким? Смотрите серию!


В энциклопедиях:   World Art  |  AniDB  |  ANN  |  Wikipedia

  • Источник релиза:
    • [Hatsuyuki-Kaitou]
    Качество видео:
    • DVDrip
    Видео:
    • AVC, 848 * 480, 1 500 кбит/с
    Аудио:
    • Японская | AC-3, 2 канала, 192 кбит/с - оригинальная, в контейнере
    Субтитры:
Скриншоты:
pic pic pic pic pic pic pic pic pic pic pic pic pic pic pic
Параметры видео | аудио:
General
Unique ID : 212967378556943013265447584097953285782 (0xA03806707EE0A71A8C5261E6A1428696)
Complete name : /Users/batyrmastyr/Downloads/torrent/[Hatsuyuki-Kaitou]_Fairy_Tail_x_Rave_OVA_-_06_[DVD][848x480_8bit_AC3_2ch][468AEE53].mkv
Format : Matroska
File size : 317 MiB
Duration : 25mn 59s
Overall bit rate : 1 703 Kbps
Movie name : [Hatsuyuki-Kaitou]_Fairy_Tail_x_Rave_OVA_-_06
Encoded date : UTC 2013-09-05 21:49:06
Writing application : mkvmerge v3.0.0 ('Hang up your Hang-Ups') built on Dec 12 2009 15:20:35
Writing library : libebml v0.7.9 + libmatroska v0.8.1
Cover : Yes / Yes / Yes / Yes / Yes / Yes / Yes / Yes / Yes / Yes / Yes / Yes / Yes / Yes / Yes / Yes

Video
ID : 2
Format : AVC
Format/Info : Advanced Video Codec
Format profile : High@L3.1
Format settings, CABAC : Yes
Format settings, ReFrames : 9 frames
Codec ID : V_MPEG4/ISO/AVC
Duration : 25mn 59s
Bit rate : 1 500 Kbps
Width : 848 pixels
Height : 480 pixels
Display aspect ratio : 16:9
Frame rate : 23.976 fps
Color space : YUV
Chroma subsampling : 4:2:0
Bit depth : 8 bits
Scan type : Progressive
Bits/(Pixel*Frame) : 0.154
Stream size : 275 MiB (87%)
Writing library : x264 core 130 r2273 b3065e6
Encoding settings : cabac=1 / ref=9 / deblock=1:-1:-1 / analyse=0x3:0x133 / me=umh / subme=9 / psy=1 / psy_rd=0.80:0.00 / mixed_ref=1 / me_range=24 / chroma_me=1 / trellis=2 / 8x8dct=1 / cqm=0 / deadzone=21,11 / fast_pskip=1 / chroma_qp_offset=-2 / threads=12 / lookahead_threads=2 / sliced_threads=0 / nr=0 / decimate=0 / interlaced=0 / bluray_compat=0 / constrained_intra=0 / bframes=7 / b_pyramid=2 / b_adapt=2 / b_bias=0 / direct=3 / weightb=1 / open_gop=0 / weightp=2 / keyint=250 / keyint_min=23 / scenecut=40 / intra_refresh=0 / rc=2pass / mbtree=0 / bitrate=1500 / ratetol=1.0 / qcomp=0.70 / qpmin=10 / qpmax=30 / qpstep=4 / cplxblur=20.0 / qblur=0.5 / ip_ratio=1.40 / pb_ratio=1.30 / aq=1:1.00
Language : English

Audio
ID : 3
Format : AC-3
Format/Info : Audio Coding 3
Mode extension : CM (complete main)
Codec ID : A_AC3
Duration : 25mn 59s
Bit rate mode : Constant
Bit rate : 192 Kbps
Channel(s) : 2 channels
Channel positions : Front: L R
Sampling rate : 48.0 KHz
Bit depth : 16 bits
Compression mode : Lossy
Stream size : 35.7 MiB (11%)

Text
ID : 1
Format : ASS
Codec ID : S_TEXT/ASS
Codec ID/Info : Advanced Sub Station Alpha
Compression mode : Lossless

Menu
00:00:00.000 : en:Prologue
00:00:44.043 : en:Opening
00:02:21.140 : en:Main_Dialogue
00:23:24.401 : en:Ending
00:24:50.279 : en:The_End
Дополнительная информация:
Бонус к 39-му тому манги и 6-я по счёту OVA
Fairy Tail на трекере

Внимание! Вы не авторизировались - скачанный по ссылкам ниже торрент не будет учитываться в вашем личном профиле.

Fairy Tail x Rave [2013, DVDrip].torrent
Трекер: Зарегистрирован

Торрент


Magnet

Зарегистрирован: 2013-09-21 22:35
Скачан: 1 раз
Размер: 319 MB
Оценка: - (Голосов: 0)
Поблагодарили: 0
 
Список файлов
# \ Папка Fairy Tail x Rave [2013, DVDrip] Размер
1 [Hatsuyuki-Kaitou]_Fairy_Tail_x_Rave_OVA_-_06_[DVD][848x480_8bit_AC3_2ch][468AEE53].mkv 317 MB
2 Шрифты / Arial Bold.ttf 733 KB
3 Шрифты / Arial.ttf 755 KB
4 Шрифты / Georgia Bold Italic.ttf 377 KB
5 Шрифты / MTCORSVA.TTF 154 KB


Последний раз редактировалось: batyrmastyr (2013-09-21 22:41), всего редактировалось 1 раз
Profile PM

batyrmastyr

Стаж: 11 лет

Сообщений: 6505

Откуда: Sekai

Провайдер: Не определен

Пол: Otoko (M)

Он-лайн: Нет

Карма: +33.73

post 21-Сен-2013 22:36 (спустя 52 секунды)
Субтитры
Прикреплённый файл

_________________
pic
я несу глупость во имя бака-тим
Gundam Team
Yuri TEAM
Термины
Profile PM
Показать сообщения:    
Ответить на тему

Текущее время: 27-Июн 05:04

Часовой пояс: GMT + 3



Вы не можете начинать темы
Вы не можете отвечать на сообщения
Вы не можете редактировать свои сообщения
Вы не можете удалять свои сообщения
Вы не можете голосовать в опросах
Вы не можете прикреплять файлы к сообщениям
Вы можете скачивать файлы
[  Execution time: 0.022 sec  |  MySQL: 0.023 sec (103%) in 21 queries  |  Mem: 410.48 KB / 1.47 MB / 1.03 MB  |  Load: 1.3 1.6 1.9  ]