Loading...
Error

Shin Seiki GPX Cyber Formula Zero / [DVDRIP, приключения, спорт, фантастика] [JAP, ансаб] (8)

Ответить на тему
Показать список качающих/скачавших
Размер: 3.63 GB
Зарегистрирован: 8 лет 3 месяца
Скачан: 0 раз

Полного источника не было: 7 лет 6 месяцев

 
     
 
 
Автор Сообщение

MasterM

Стаж: 11 лет

Сообщений: 128

Провайдер: ВТ (IXNN)

Пол: Otoko (M)

Он-лайн: Нет

Карма: 0.00

Shin Seiki GPX Cyber Formula Zero


pic
Жанр: приключения, спорт, фантастика
Количество серий: 8 эп., 30 мин.
Время выхода: с 01.04.1994 по 01.02.1995
Режиссер: Фукуда Мицуо
Автор оригинала: Ятатэ Хадзимэ
Студия: pic
Качество видео: DVDRip
Размер кадра: 640x480
Битрейт: 2028 кб/с
Наличие Хардсабов: Нет
Перевод: Ансаб тут

Описание: A freak accident during the 12th Cyber Formula World Grand Prix causes Hayato Kazami to miss the rest of the season, and critically injures both his body and his will to continue racing. Hayato's longtime friend, Asuka Sugo, helps nurse him back to health, and in return he proposes to her and promises her that he would never race again. But as time goes on, Hayato begins to doubt whether he really wants to retire, and decides to make a comeback after all. And with the 13th Cyber Formula World Grand Prix now underway, he must struggle to regain his racing form, regain the trust of Asuka, whose promise he broke, and thwart the malicious intents of Henri Clayton. All the while, the reason behind Hayato's accident begins to unveil itself: the "Zero Zone."
© AniDB


В энциклопедияхWorld Art  |  AniDB
В каком порядке лучше смотреть эту серию
Media info
Format : Windows Media
File size : 413 MiB
Duration : 28mn 29s
Overall bit rate mode : Variable
Overall bit rate : 2 028 Kbps
Maximum Overall bit rate : 4 722 Kbps
Encoded date : UTC 2007-11-03 13:20:30.238

Video
ID : 1
Format : VC-1
Format profile : MP@ML
Codec ID : WMV3
Codec ID/Info : Windows Media Video 9
Codec ID/Hint : WMV3
Description of the codec : Windows Media Video 9
Duration : 28mn 29s
Bit rate mode : Variable
Bit rate : 1 825 Kbps
Width : 640 pixels
Height : 480 pixels
Display aspect ratio : 4:3
Frame rate : 23.976 fps
Bit depth : 8 bits
Scan type : Progressive
Compression mode : Lossy
Bits/(Pixel*Frame) : 0.248
Stream size : 372 MiB (90%)
Language : Japanese

Audio
ID : 2
Format : WMA
Format profile : Pro
Codec ID : 162
Codec ID/Info : Windows Media Audio
Description of the codec : Windows Media Audio 10 Professional - 192 kbps, 44 kHz, 2 channel 16 bit 1-pass CBR
Duration : 28mn 29s
Bit rate mode : Constant
Bit rate : 192 Kbps
Channel(s) : 2 channels
Sampling rate : 44.1 KHz
Bit depth : 16 bits
Stream size : 39.1 MiB (9%)
Language : Japanese
Скриншоты
pic

pic

pic

pic

Внимание! Вы не авторизировались - скачанный по ссылкам ниже торрент не будет учитываться в вашем личном профиле.

Shin Seiki GPX Cyber Formula ZERO.torrent
Трекер: Зарегистрирован

Торрент


Magnet

Зарегистрирован: 2011-06-24 07:40
Скачан: 0 раз
Размер: 3.63 GB
Оценка: - (Голосов: 0)
Поблагодарили: 0
 
Список файлов
# \ Папка Shin Seiki GPX Cyber Formula ZERO Размер
1 01 The Limit Zone Nightmare (640x480 WMV9).wmv 413 MB
2 02 Inside the Sun (640x480 WMV9).wmv 317 MB
3 03 To the Circuit Again (640x480 WMV9).wmv 398 MB
4 04 The flight of the Pegasus (640x480 WMV9).wmv 427 MB
5 05 The Closed Tomorrow (640x480 WMV9).wmv 393 MB
6 06 Simply Because of Victory (640x480 WMV9).wmv 405 MB
7 07 The Overture to Death Duel (640x480 WMV9).wmv 360 MB
8 08.1 To the Respective Future (640x480 WMV9) [без титров в конце].wmv 498 MB
9 08.2 To the Respective Future (640x480 WMV9).wmv 503 MB
Profile PM

MasterM

Стаж: 11 лет

Сообщений: 128

Провайдер: ВТ (IXNN)

Пол: Otoko (M)

Он-лайн: Нет

Карма: 0.00

post 06-Июн-2013 12:48 (спустя 1 год 11 месяцев)
Эту раздачу более не поддерживаю.
Profile PM
Показать сообщения:    
Ответить на тему

Текущее время: 20-Окт 03:31

Часовой пояс: GMT + 3



Вы не можете начинать темы
Вы не можете отвечать на сообщения
Вы не можете редактировать свои сообщения
Вы не можете удалять свои сообщения
Вы не можете голосовать в опросах
Вы не можете прикреплять файлы к сообщениям
Вы можете скачивать файлы
[  Execution time: 0.059 sec  |  MySQL: 0.063 sec (108%) in 21 queries  |  Mem: 410.6 KB / 1.45 MB / 1.01 MB  |  Load: 0.2 0.4 0.6  ]