Loading...
Error

Future GPX Cyber Formula 11 / [DVDRIP, приключения, спорт, фантастика] [JAP, ансаб] (6)

Ответить на тему
Показать список качающих/скачавших
Размер: 2.49 GB
Зарегистрирован: 8 лет 4 месяца
Скачан: 1 раз

Полного источника не было: 7 лет 7 месяцев

 
     
 
 
Автор Сообщение

MasterM

Стаж: 11 лет

Сообщений: 128

Провайдер: ВТ (IXNN)

Пол: Otoko (M)

Он-лайн: Нет

Карма: 0.00

pic
Future GPX Cyber Formula 11


Жанр: приключения, спорт, фантастика
Количество серий: 6 эп., 30 мин.
Время выхода: с 01.11.1992 по 01.06.1993

Режиссер: Фукуда Мицуо
Автор оригинала: Ятатэ Хадзимэ
Студия: pic

Качество видео: DVDRip
Размер кадра: 640x480
Битрейт: 1963 кб/с

Наличие Хардсабов: Нет
Перевод: Ансаб тут

Описание: It is now time for the 11th Cyber Formula World Grand Prix. With all the expectations and pressures placed upon him, Hayato Kazami struggles to regain the championship form that he had a year ago. Moreover, Osamu Sugo, aka Knight Schumacher, has reentered the competition, and declared Hayato to be an enemy. Hayato, with the new Super Asurada AKF-11, must now defeat someone he once deeply trusted in order to secure his second championship.
© AniDB


В энциклопедияхWorld Art  |  AniDB
В каком порядке лучше смотреть эту серию
Media info
General
Format : Windows Media
File size : 394 MiB
Duration : 28mn 2s
Overall bit rate mode : Variable
Overall bit rate : 1 963 Kbps
Maximum Overall bit rate : 4 175 Kbps
Encoded date : UTC 2007-11-02 14:34:33.683

Video
ID : 1
Format : VC-1
Format profile : MP@ML
Codec ID : WMV3
Codec ID/Info : Windows Media Video 9
Codec ID/Hint : WMV3
Description of the codec : Windows Media Video 9
Duration : 28mn 2s
Bit rate mode : Variable
Bit rate : 1 760 Kbps
Width : 640 pixels
Height : 480 pixels
Display aspect ratio : 4:3
Frame rate : 23.976 fps
Bit depth : 8 bits
Scan type : Progressive
Compression mode : Lossy
Bits/(Pixel*Frame) : 0.239
Stream size : 353 MiB (90%)
Language : Japanese

Audio
ID : 2
Format : WMA
Format profile : Pro
Codec ID : 162
Codec ID/Info : Windows Media Audio
Description of the codec : Windows Media Audio 10 Professional - 192 kbps, 44 kHz, 2 channel 16 bit 1-pass CBR
Duration : 28mn 2s
Bit rate mode : Constant
Bit rate : 192 Kbps
Channel(s) : 2 channels
Sampling rate : 44.1 KHz
Bit depth : 16 bits
Stream size : 38.5 MiB (10%)
Language : Japanese
Скриншоты
pic

pic

pic

pic

Внимание! Вы не авторизировались - скачанный по ссылкам ниже торрент не будет учитываться в вашем личном профиле.

Shin Seiki GPX Cyber Formula Double One [1992]OVA.torrent
Трекер: Зарегистрирован

Торрент


Magnet

Зарегистрирован: 2011-06-23 11:45
Скачан: 1 раз
Размер: 2.49 GB
Оценка: - (Голосов: 0)
Поблагодарили: 0
 
Список файлов
# \ Папка Shin Seiki GPX Cyber Formula Double One [1992]OVA Размер
1 01 The Car Number of Glory (640x480 WMV9).wmv 394 MB
2 02 Revive! The Supersonic Knight (640x480 WMV9).wmv 424 MB
3 03 Birth of the New Asurada (640x480 WMV9).wmv 416 MB
4 04 Full Throttle! Inertial Drift (640x480 WMV9).wmv 452 MB
5 05 Dawn of the Decisive Battle (640x480 WMV9).wmv 346 MB
6 06 This Eternal Moment (640x480 WMV9).wmv 513 MB


Последний раз редактировалось: MasterM (2011-06-24 07:45), всего редактировалось 3 раз(а)
Profile PM

MasterM

Стаж: 11 лет

Сообщений: 128

Провайдер: ВТ (IXNN)

Пол: Otoko (M)

Он-лайн: Нет

Карма: 0.00

post 24-Июн-2011 06:55 (спустя 19 часов)
Субтитры
Прикреплённый файл
Profile PM

MasterM

Стаж: 11 лет

Сообщений: 128

Провайдер: ВТ (IXNN)

Пол: Otoko (M)

Он-лайн: Нет

Карма: 0.00

post 06-Июн-2013 12:48 (спустя 1 год 11 месяцев)
Эту раздачу более не поддерживаю.
Profile PM
Показать сообщения:    
Ответить на тему

Текущее время: 19-Ноя 13:57

Часовой пояс: GMT + 3



Вы не можете начинать темы
Вы не можете отвечать на сообщения
Вы не можете редактировать свои сообщения
Вы не можете удалять свои сообщения
Вы не можете голосовать в опросах
Вы не можете прикреплять файлы к сообщениям
Вы можете скачивать файлы
[  Execution time: 0.082 sec  |  MySQL: 0.067 sec (82%) in 21 queries  |  Mem: 410.6 KB / 1.46 MB / 1.02 MB  |  Load: 0.8 0.9 0.8  ]