Loading...
Error

Classroom☆Crisis | クラスルーム☆クライシス [2015, приключения][BDrip, 720р][JPN, субтитры: rus][13 + 1]

Ответить на тему
Показать список качающих/скачавших
Размер: 6.24 GB
Зарегистрирован: 2 года 3 месяца
Скачан: 1 раз

Полного источника не было: 2 месяца 8 дней

 
     
 
 
Автор Сообщение

Smith

Стаж: 11 лет

Сообщений: 3979

Провайдер: МТС Домашний (IXNN)

Пол: Otoko (M)

Он-лайн: Нет

Карма: +24.72

pic
Classroom☆Crisis

クラスルーム☆クライシス


Тип: ТВ сериал

Жанры: приключения
Длительность: ‍‍‍‍‍‍‍‍‍‍‍‍‍‍‍‍13 + 1 эп. по 25 мин.
Время выхода: c 04.07.2015 по 26.09.15
Страна: Япония

Режиссёр: Нагасаки Кэндзи
Студия: pic


Описание:
Будущее. Человечество во всю покоряет космические просторы, терраформирует планеты, качает ресурсы из астероидов... А школьники, будучи ценным ресурсом, занимаются разработкой и тестированием техники нового поколения, ну и выполняют поручения уровня "самоубийственное задание". И вот в один такой класс "приезжает ревизор" с новостью, что зажрались уже в своем поведении и надо расходы сокращать, а уж как они добьются этого - посмотрим.


В энциклопедиях:   World Art 

  • Качество видео:
    • BDrip
    Видео:
    • AVC, 1280 * 720, 2 216 кбит/с
    Аудио:
    • Японская | Vorbis, 2 канала, 192 кбит/с - оригинальная, в контейнере
    Субтитры:


Скриншоты:
pic pic pic pic pic pic pic pic pic pic
Параметры видео | аудио:
General
Unique ID : 231637940270020859760689242577917260725 (0xAE43D833EB457DD62A2E1506449533B5)
Complete name : /Users/batyrmastyr/Desktop/_VID/Classroom Crisis [2015, BDrip, 720p]/Classroom Crisis - 01 [BDRip 1280x720 x264 Vorbis].mkv
Format : Matroska
Format version : Version 4 / Version 2
File size : 431 MiB
Duration : 24mn 31s
Overall bit rate mode : Variable
Overall bit rate : 2 457 Kbps
Movie name : Classroom Crisis 01
Encoded date : UTC 2017-03-05 21:17:42
Writing application : mkvmerge v9.8.0 ('Kuglblids') 64bit
Writing library : libebml v1.3.4 + libmatroska v1.4.5

Video
ID : 1
Format : AVC
Format/Info : Advanced Video Codec
Format profile : High@L4.0
Format settings, CABAC : Yes
Format settings, ReFrames : 6 frames
Codec ID : V_MPEG4/ISO/AVC
Duration : 24mn 31s
Bit rate : 2 216 Kbps
Width : 1 280 pixels
Height : 720 pixels
Display aspect ratio : 16:9
Frame rate mode : Constant
Frame rate : 23.976 fps
Color space : YUV
Chroma subsampling : 4:2:0
Bit depth : 8 bits
Scan type : Progressive
Bits/(Pixel*Frame) : 0.100
Stream size : 389 MiB (90%)
Writing library : x264 core 148 r2708 86b7198
Encoding settings : cabac=1 / ref=6 / deblock=1:0:0 / analyse=0x3:0x133 / me=umh / subme=9 / psy=1 / psy_rd=1.00:0.00 / mixed_ref=1 / me_range=16 / chroma_me=1 / trellis=1 / 8x8dct=1 / cqm=0 / deadzone=21,11 / fast_pskip=1 / chroma_qp_offset=-2 / threads=12 / lookahead_threads=1 / sliced_threads=0 / nr=0 / decimate=1 / interlaced=0 / bluray_compat=0 / constrained_intra=0 / bframes=3 / b_pyramid=2 / b_adapt=2 / b_bias=0 / direct=3 / weightb=1 / open_gop=0 / weightp=2 / keyint=240 / keyint_min=24 / scenecut=40 / intra_refresh=0 / rc_lookahead=40 / rc=crf / mbtree=1 / crf=15.0 / qcomp=0.60 / qpmin=0 / qpmax=25 / qpstep=4 / ip_ratio=1.40 / aq=1:1.00
Default : Yes
Forced : No
Color primaries : BT.709
Transfer characteristics : BT.709
Matrix coefficients : BT.709
DURATION : 00:24:31.137000000
NUMBER_OF_FRAMES : 35272
NUMBER_OF_BYTES : 420476190
_STATISTICS_WRITING_APP : mkvmerge v9.8.0 ('Kuglblids') 64bit
_STATISTICS_WRITING_DATE_UTC : 2017-03-05 21:17:42
_STATISTICS_TAGS : BPS DURATION NUMBER_OF_FRAMES NUMBER_OF_BYTES

Audio
ID : 2
Format : Vorbis
Format settings, Floor : 1
Codec ID : A_VORBIS
Duration : 24mn 31s
Bit rate mode : Variable
Bit rate : 192 Kbps
Channel(s) : 2 channels
Sampling rate : 48.0 KHz
Compression mode : Lossy
Stream size : 33.7 MiB (8%)
Title : Stereo
Writing library : aoTuV 20110424 (UTC 2011-04-24)
Language : ???
Default : Yes
Forced : No
DURATION : 00:24:31.370000000
NUMBER_OF_FRAMES : 127827
NUMBER_OF_BYTES : 30936524
_STATISTICS_WRITING_APP : mkvmerge v9.8.0 ('Kuglblids') 64bit
_STATISTICS_WRITING_DATE_UTC : 2017-03-05 21:17:42
_STATISTICS_TAGS : BPS DURATION NUMBER_OF_FRAMES NUMBER_OF_BYTES
Writing application : HandBrake

Внимание! Вы не авторизировались - скачанный по ссылкам ниже торрент не будет учитываться в вашем личном профиле.

Classroom Crisis [2015, BDrip, 720p].torrent
Трекер: Зарегистрирован >_<"

Magnet

Зарегистрирован: 2017-03-08 23:58
Скачан: 1 раз
Размер: 6.24 GB
Оценка: - (Голосов: 0)
Поблагодарили: 0
 
Список файлов
# \ Папка Размер

_________________
pic


Последний раз редактировалось: Smith (2015-09-27 21:55), всего редактировалось 3 раз(а)
Profile PM

Smith

Стаж: 11 лет

Сообщений: 3979

Провайдер: МТС Домашний (IXNN)

Пол: Otoko (M)

Он-лайн: Нет

Карма: +24.72

post 27-Сен-2015 21:55 (спустя 2 месяца 22 дня)
все. сабов нет.
pic

_________________
pic
Profile PM

batyrmastyr

Стаж: 11 лет

Сообщений: 6505

Откуда: Sekai

Провайдер: ТТК

Пол: Otoko (M)

Он-лайн: Нет

Карма: +33.73

post 25-Фев-2017 21:38 (спустя 1 год 4 месяца)
Нахт и Бука всё же выкатили, пора обновлять до блюрика Very Happy

_________________
pic
я несу глупость во имя бака-тим
Gundam Team
Yuri TEAM
Термины
Profile PM

Smith

Стаж: 11 лет

Сообщений: 3979

Провайдер: МТС Домашний (IXNN)

Пол: Otoko (M)

Он-лайн: Нет

Карма: +24.72

post 25-Фев-2017 21:45 (спустя 6 минут)
у меня хард с этим сериалом сдох. займись если хочешь.

_________________
pic
Profile PM

batyrmastyr

Стаж: 11 лет

Сообщений: 6505

Откуда: Sekai

Провайдер: ТТК

Пол: Otoko (M)

Он-лайн: Нет

Карма: +33.73

post 08-Мар-2017 23:59 (спустя 11 дней)
Обновил.

_________________
pic
я несу глупость во имя бака-тим
Gundam Team
Yuri TEAM
Термины
Profile PM
Показать сообщения:    
Ответить на тему

Текущее время: 26-Июн 16:57

Часовой пояс: GMT + 3



Вы не можете начинать темы
Вы не можете отвечать на сообщения
Вы не можете редактировать свои сообщения
Вы не можете удалять свои сообщения
Вы не можете голосовать в опросах
Вы не можете прикреплять файлы к сообщениям
Вы можете скачивать файлы
[  Execution time: 0.028 sec  |  MySQL: 0.026 sec (90%) in 21 queries  |  Mem: 410.7 KB / 1.48 MB / 1.06 MB  |  Load: 1 1.1 1.2  ]