Loading...
Error

Hyakka Ryouran: Samurai After | Цветущий сад: самурайки, послесловие [2015, боевые искусства, гарем, комедия, фэнтези, эччи, большая грудь] [BDrip, 720p] [JPN, субтитры: rus] (2 + 2)

Ответить на тему
Показать список качающих/скачавших
Размер: 1.38 GB
Зарегистрирован: 2 года 5 месяцев
Скачан: 2 раза

Сидов:

Имя UL
Ratio
Передано Скорость Провайдер
up down up down
batyrmastyr ®  0 - - - - Дом.ru
показаны данные только за текущую сессию
 
     
 
 
Автор Сообщение

batyrmastyr

Стаж: 10 лет

Сообщений: 6488

Откуда: Sekai

Провайдер: ТТК

Пол: Не определилось

Он-лайн: Нет

Карма: +33.31

Hyakka Ryouran: Samurai After
Цветущий сад: самурайки, послесловие
百花繚乱 サムライアフター


Тип: OVA

pic
Жанры: боевые искусства, гарем, комедия, фэнтези, эччи, большая грудь
Длительность: 2 + 2 эп. по 25 мин.
Время выхода: c 23.01.2015 по 01.07.2015
Страна: Япония

Режиссёр: Фукусима Тосинори
Сценарист: Нисидзоно Сатору
Снято по: ранобэ Hyakka Ryōran: Samurai Girls
Автор оригинала: Судзуки Акира
Студия: ARMS

Описание:
Что делать когда со всеми врагами страны покончено? Самурайки решили продолжить борьбу за сердце своего командира.


В энциклопедиях:   AniDB  |  World Art  |  Википедия

  • Качество видео:
    • BDrip
    Видео:
    • AVC, 1280 * 720, 4 500 кбит/с
    Аудио:
    • Японская | Vorbis, 2 канала, 224 кбит/с - оригинальная, в контейнере
    Субтитры:


Скриншоты:
pic pic pic pic pic pic pic pic pic pic pic pic
Параметры видео | аудио:
General
Unique ID : 69788892130239035503262020949802430334 (0x3480DA09EC784C3F46AA26CBD90B2F7E)
Complete name : /Volumes/t/ongoing/Hyakka Ryouran Samurai Bride [2013, BDrip, 720p]/Hyakka Ryouran Samurai Bride - 01 (BDRip 1280x720 H.264 Vorbis).mkv
Format : Matroska
Format version : Version 4 / Version 2
File size : 817 MiB
Duration : 23mn 42s
Overall bit rate mode : Variable
Overall bit rate : 4 820 Kbps
Movie name : Hyakka Ryouran Samurai Bride - 01
Encoded date : UTC 2016-04-02 14:48:15
Writing application : mkvmerge v8.8.0 ('Wind at my back') 64bit
Writing library : libebml v1.3.3 + libmatroska v1.4.4

Video
ID : 1
Format : AVC
Format/Info : Advanced Video Codec
Format profile : High@L4.0
Format settings, CABAC : Yes
Format settings, ReFrames : 6 frames
Codec ID : V_MPEG4/ISO/AVC
Duration : 23mn 42s
Bit rate : 4 500 Kbps
Width : 1 280 pixels
Height : 720 pixels
Display aspect ratio : 16:9
Frame rate mode : Constant
Frame rate : 23.976 fps
Color space : YUV
Chroma subsampling : 4:2:0
Bit depth : 8 bits
Scan type : Progressive
Bits/(Pixel*Frame) : 0.204
Stream size : 763 MiB (93%)
Writing library : x264 core 142 r2479 dd79a61
Encoding settings : cabac=1 / ref=6 / deblock=1:0:0 / analyse=0x3:0x133 / me=umh / subme=10 / psy=1 / psy_rd=1.00:0.00 / mixed_ref=1 / me_range=16 / chroma_me=1 / trellis=2 / 8x8dct=1 / cqm=0 / deadzone=21,11 / fast_pskip=1 / chroma_qp_offset=-2 / threads=12 / lookahead_threads=1 / sliced_threads=0 / nr=0 / decimate=1 / interlaced=0 / bluray_compat=0 / constrained_intra=0 / bframes=3 / b_pyramid=2 / b_adapt=2 / b_bias=0 / direct=3 / weightb=1 / open_gop=0 / weightp=1 / keyint=240 / keyint_min=24 / scenecut=40 / intra_refresh=0 / rc_lookahead=40 / rc=crf / mbtree=1 / crf=15.0 / qcomp=0.60 / qpmin=7 / qpmax=20 / qpstep=4 / ip_ratio=1.40 / aq=1:1.00
Default : Yes
Forced : No
Color primaries : BT.709
Transfer characteristics : BT.709
Matrix coefficients : BT.709
DURATION : 00:23:42.088000000
NUMBER_OF_FRAMES : 34096
NUMBER_OF_BYTES : 817297416
_STATISTICS_WRITING_APP : mkvmerge v8.8.0 ('Wind at my back') 64bit
_STATISTICS_WRITING_DATE_UTC : 2016-04-02 14:48:15
_STATISTICS_TAGS : BPS DURATION NUMBER_OF_FRAMES NUMBER_OF_BYTES

Audio
ID : 2
Format : Vorbis
Format settings, Floor : 1
Codec ID : A_VORBIS
Duration : 23mn 42s
Bit rate mode : Variable
Bit rate : 224 Kbps
Channel(s) : 2 channels
Sampling rate : 48.0 KHz
Compression mode : Lossy
Stream size : 38.0 MiB (5%)
Title : Stereo
Writing library : aoTuV 20110424 (UTC 2011-04-24)
Language : Japanese
Default : Yes
Forced : No
DURATION : 00:23:42.034000000
NUMBER_OF_FRAMES : 171458
NUMBER_OF_BYTES : 38814631
_STATISTICS_WRITING_APP : mkvmerge v8.8.0 ('Wind at my back') 64bit
_STATISTICS_WRITING_DATE_UTC : 2016-04-02 14:48:15
_STATISTICS_TAGS : BPS DURATION NUMBER_OF_FRAMES NUMBER_OF_BYTES
Writing application : HandBrake

Внимание! Вы не авторизировались - скачанный по ссылкам ниже торрент не будет учитываться в вашем личном профиле.

Hyakka Ryouran Samurai After [2015, BDrip, 720p].torrent
Трекер: Зарегистрирован

Торрент


Magnet

Зарегистрирован: 2016-05-08 00:34
Скачан: 2 раз
Размер: 1.38 GB
Оценка: - (Голосов: 0)
Поблагодарили: 0
 
Список файлов
# \ Папка Размер
Profile PM
Показать сообщения:    
Ответить на тему

Текущее время: 16-Окт 03:18

Часовой пояс: GMT + 3



Вы не можете начинать темы
Вы не можете отвечать на сообщения
Вы не можете редактировать свои сообщения
Вы не можете удалять свои сообщения
Вы не можете голосовать в опросах
Вы не можете прикреплять файлы к сообщениям
Вы можете скачивать файлы
[  Execution time: 0.117 sec  |  MySQL: 0.109 sec (93%) in 22 queries  |  Mem: 160.08 KB / 1.19 MB / 780.24 KB  |  Load: 3.6 2.5 2.2  ]