Loading...
Error

Little Witch Academia: Mahou Shikake no Parade | Академия ведьмочек: Колдовской парад [2015, комедия, фэнтези] [BDrip, 720p] [JPN, субтитры: eng+rus] (1)

Ответить на тему
Показать список качающих/скачавших
Размер: 1.19 GB
Зарегистрирован: 2 года 10 месяцев
Скачан: 2 раза

Сидов:

Имя UL
Ratio
Передано Скорость Провайдер
up down up down
batyrmastyr ®  0 - - - - Не определен
показаны данные только за текущую сессию
 
     
 
 
Автор Сообщение

batyrmastyr

Стаж: 11 лет

Сообщений: 6495

Откуда: Sekai

Провайдер: Не определен

Пол: Не определилось

Он-лайн: Нет

Карма: +33.44

Little Witch Academia: Mahou Shikake no Parade
Академия ведьмочек: Колдовской парад
リトルウィッチアカデミア 魔法仕掛けのパレード


Тип: полнометражный фильм

pic
Жанры: комедия, фэнтези
Длительность: 1 эп. по 55 мин.
Время выхода: 03.07.2015
Страна: Япония

Режиссёр: Ёсинари Ё
Студия: Trigger

Описание:
Продолжение повествования о приключениях юных ведьмочек.

Девочка Акко, побывав однажды на магическом представлении, с первого взгляда влюбилась в этот невероятный вид искусства. И ей даже удаётся поступить в лучшую в Европе школу магии "Luna Nova". Но обыденная учёба оказалась не такой уж и завораживающей, как она думала... И вот, когда разочарованная скучными и консервативными занятиями Акко уже перестаёт мечтать, её школа вдруг неожиданно подверглась нападению. И тут ей, как раз, выпадает возможность что-то изменить и спасти академию!


В энциклопедиях:   AniDB  |  World Art  |  Википедия

  • Качество видео:
    • BDrip
    Видео:
    • AVC, 1280 * 720, 2 910 кбит/с
    Аудио:
    • Японская | Vorbis, 2 канала, 224 кбит/с - оригинальная, в контейнере
    Субтитры:


Скриншоты:
pic pic pic pic pic pic pic pic pic pic pic pic pic pic pic pic pic pic
Параметры видео | аудио:
General
Unique ID : 98118450597125987446419744834862443602 (0x49D0ED1C1C64A8887EB4B1242A5FEC52)
Complete name : /Users/batyrmastyr/Desktop/_VID/Little Witch Academia 2 - Mahou Shikake no Parade [2015, BDrip, 720p]/Little Witch Academia 2 - Mahou Shikake no Parade (BDRip 1280x720 H.264 Vorbis).mkv
Format : Matroska
Format version : Version 4 / Version 2
File size : 1.19 GiB
Duration : 53mn 24s
Overall bit rate mode : Variable
Overall bit rate : 3 197 Kbps
Movie name : Little Witch Academia 02
Encoded date : UTC 2016-02-16 21:55:45
Writing application : mkvmerge v8.8.0 ('Wind at my back') 64bit
Writing library : libebml v1.3.3 + libmatroska v1.4.4

Video
ID : 1
Format : AVC
Format/Info : Advanced Video Codec
Format profile : High@L4.0
Format settings, CABAC : Yes
Format settings, ReFrames : 6 frames
Codec ID : V_MPEG4/ISO/AVC
Duration : 53mn 24s
Bit rate : 2 910 Kbps
Width : 1 280 pixels
Height : 720 pixels
Display aspect ratio : 16:9
Frame rate mode : Constant
Frame rate : 23.976 fps
Color space : YUV
Chroma subsampling : 4:2:0
Bit depth : 8 bits
Scan type : Progressive
Bits/(Pixel*Frame) : 0.132
Stream size : 1.09 GiB (91%)
Writing library : x264 core 142 r2479 dd79a61
Encoding settings : cabac=1 / ref=6 / deblock=1:0:0 / analyse=0x3:0x133 / me=umh / subme=10 / psy=1 / psy_rd=1.00:0.00 / mixed_ref=1 / me_range=16 / chroma_me=1 / trellis=2 / 8x8dct=1 / cqm=0 / deadzone=21,11 / fast_pskip=1 / chroma_qp_offset=-2 / threads=12 / lookahead_threads=1 / sliced_threads=0 / nr=0 / decimate=1 / interlaced=0 / bluray_compat=0 / constrained_intra=0 / bframes=3 / b_pyramid=2 / b_adapt=2 / b_bias=0 / direct=3 / weightb=1 / open_gop=0 / weightp=1 / keyint=240 / keyint_min=24 / scenecut=40 / intra_refresh=0 / rc_lookahead=40 / rc=crf / mbtree=1 / crf=15.0 / qcomp=0.60 / qpmin=7 / qpmax=20 / qpstep=4 / ip_ratio=1.40 / aq=1:1.00
Default : Yes
Forced : No
Color primaries : BT.709
Transfer characteristics : BT.709
Matrix coefficients : BT.709
DURATION : 00:53:24.201000000
NUMBER_OF_FRAMES : 76824
NUMBER_OF_BYTES : 1201336692
_STATISTICS_WRITING_APP : mkvmerge v8.8.0 ('Wind at my back') 64bit
_STATISTICS_WRITING_DATE_UTC : 2016-02-16 21:55:45
_STATISTICS_TAGS : BPS DURATION NUMBER_OF_FRAMES NUMBER_OF_BYTES

Audio
ID : 2
Format : Vorbis
Format settings, Floor : 1
Codec ID : A_VORBIS
Duration : 53mn 24s
Bit rate mode : Variable
Bit rate : 224 Kbps
Channel(s) : 2 channels
Sampling rate : 48.0 KHz
Compression mode : Lossy
Stream size : 85.6 MiB (7%)
Title : Stereo
Writing library : aoTuV 20110424 (UTC 2011-04-24)
Language : Japanese
Default : Yes
Forced : No
DURATION : 00:53:24.130000000
NUMBER_OF_FRAMES : 332601
NUMBER_OF_BYTES : 77959573
_STATISTICS_WRITING_APP : mkvmerge v8.8.0 ('Wind at my back') 64bit
_STATISTICS_WRITING_DATE_UTC : 2016-02-16 21:55:45
_STATISTICS_TAGS : BPS DURATION NUMBER_OF_FRAMES NUMBER_OF_BYTES
Writing application : HandBrake

Внимание! Вы не авторизировались - скачанный по ссылкам ниже торрент не будет учитываться в вашем личном профиле.

Little Witch Academia 2 - Mahou Shikake no Parade [2015, BDrip, 720p].torrent
Трекер: Зарегистрирован

Торрент


Magnet

Зарегистрирован: 2016-02-27 23:28
Скачан: 2 раз
Размер: 1.19 GB
Оценка: 5 (Голосов: 1)
Поблагодарили: 1   (список)
 
Список файлов
# \ Папка Размер


Последний раз редактировалось: batyrmastyr (2016-02-27 23:28), всего редактировалось 3 раз(а)
Profile PM

Federal Marshal

Стаж: 9 лет 8 месяцев

Сообщений: 4666

Откуда: ВТ

Провайдер: ВТ (IXNN)

Пол: Otoko (M)

Он-лайн: Нет

Карма: +12.36

post 09-Июл-2015 23:15 (спустя 1 день)
Как я удачно зашел Razz
Profile PM

batyrmastyr

Стаж: 11 лет

Сообщений: 6495

Откуда: Sekai

Провайдер: Не определен

Пол: Не определилось

Он-лайн: Нет

Карма: +33.44

post 27-Фев-2016 23:29 (спустя 7 месяцев 18 дней)
Нужно же было когда-то заменить видео? Very Happy

_________________
pic
я несу глупость во имя бака-тим
Gundam Team
Yuri TEAM
Термины
Profile PM
Показать сообщения:    
Ответить на тему

Текущее время: 16-Янв 17:02

Часовой пояс: GMT + 3



Вы не можете начинать темы
Вы не можете отвечать на сообщения
Вы не можете редактировать свои сообщения
Вы не можете удалять свои сообщения
Вы не можете голосовать в опросах
Вы не можете прикреплять файлы к сообщениям
Вы можете скачивать файлы
[  Execution time: 0.028 sec  |  MySQL: 0.028 sec (99%) in 21 queries  |  Mem: 410.55 KB / 1.48 MB / 1.05 MB  |  Load: 1.6 1.4 1.3  ]