Loading...
Error

Hana to Alice: Satsujin Jiken | Хана и Алиса: дело об убийстве [2015, дзёсэй, детектив] [BDrip, 720p] [JPN, субтитры: rus] (1)

Ответить на тему
Показать список качающих/скачавших
Размер: 1.46 GB
Зарегистрирован: 3 года 1 месяц
Скачан: 3 раза

Сидов:

Имя UL
Ratio
Передано Скорость Провайдер
up down up down
batyrmastyr ®  0 - - - - Не определен
показаны данные только за текущую сессию
 
     
 
 
Автор Сообщение

batyrmastyr

Стаж: 11 лет

Сообщений: 6495

Откуда: Sekai

Провайдер: Не определен

Пол: Не определилось

Он-лайн: Нет

Карма: +33.44

Hana to Alice: Satsujin Jiken
Хана и Алиса: дело об убийстве
花とアリス 殺人事件


Тип: полнометражный фильм

pic
Жанры: дзёсэй, детектив
Длительность: 1 эп. по 1 час 40 мин.
Время выхода: 20.02.2015
Страна: Япония

Режиссёр: Ивай Сюндзи
Студия: Steve N` Steven

Описание:
После того как родители 14-летней Тэцуко (она же Алиса) развелись, она была вынуждена вместе с матерью переехать из столицы в провинциальный городок и перевестись в новую среднюю школу. Соседи оказались очень таинственными личностями и пристально наблюдали за переездом из окна. Да и знакомство с новыми одноклассниками оказывается не таким, как она могла себе представить — в первый же день её начинают игнорировать. Позже Алиса выясняет, что ей досталась парта ученика по имени Иуда, который, как говорят, был убит год назад, а таинственного наблюдателя проживающего напротив зовут Ханой. Но всё это неспроста. Как загадочное убийство связано с девочкой Ханой, которая живет по соседству, не ходит в школу и наблюдает за ней из окна?


В энциклопедиях:   AniDB  |  World Art  |  Википедия

  • Качество видео:
    • BDrip
    Видео:
    • AVC, 1280 * 720, 1 851 кбит/с
    Аудио:
    • Японская | Vorbis, 2 канала, 224 кбит/с - оригинальная, в контейнере
    Субтитры:
Скриншоты:
pic pic pic pic pic pic pic pic pic pic pic pic
Параметры видео | аудио:
General
Unique ID : 200439577212710655360029620865827957084 (0x96CB42252777E32DCFD7F30A279D695C)
Complete name : /Users/batyrmastyr/Desktop/_VID/Hana to Alice ~Satsujin Jiken~ [2015, BDrip, 720p]/Hana to Alice ~Satsujin Jiken~ (BDRip 1280x720 H.264 Vorbis).mkv
Format : Matroska
Format version : Version 4 / Version 2
File size : 1.46 GiB
Duration : 1h 38mn
Overall bit rate mode : Variable
Overall bit rate : 2 117 Kbps
Movie name : Hana to Alice ~Satsujin Jiken~
Encoded date : UTC 2015-11-21 17:59:32
Writing application : mkvmerge v8.5.2 ('Crosses') 64bit
Writing library : libebml v1.3.3 + libmatroska v1.4.4

Video
ID : 1
Format : AVC
Format/Info : Advanced Video Codec
Format profile : High@L4.0
Format settings, CABAC : Yes
Format settings, ReFrames : 6 frames
Codec ID : V_MPEG4/ISO/AVC
Duration : 1h 38mn
Bit rate : 1 851 Kbps
Width : 1 280 pixels
Height : 720 pixels
Display aspect ratio : 16:9
Frame rate mode : Constant
Frame rate : 23.976 fps
Color space : YUV
Chroma subsampling : 4:2:0
Bit depth : 8 bits
Scan type : Progressive
Bits/(Pixel*Frame) : 0.084
Stream size : 1.28 GiB (87%)
Writing library : x264 core 142 r2479 dd79a61
Encoding settings : cabac=1 / ref=6 / deblock=1:0:0 / analyse=0x3:0x133 / me=umh / subme=10 / psy=1 / psy_rd=1.00:0.00 / mixed_ref=1 / me_range=16 / chroma_me=1 / trellis=2 / 8x8dct=1 / cqm=0 / deadzone=21,11 / fast_pskip=1 / chroma_qp_offset=-2 / threads=12 / lookahead_threads=1 / sliced_threads=0 / nr=0 / decimate=0 / interlaced=0 / bluray_compat=0 / constrained_intra=0 / bframes=3 / b_pyramid=2 / b_adapt=2 / b_bias=0 / direct=3 / weightb=1 / open_gop=0 / weightp=1 / keyint=240 / keyint_min=24 / scenecut=40 / intra_refresh=0 / rc_lookahead=40 / rc=crf / mbtree=1 / crf=15.0 / qcomp=0.60 / qpmin=7 / qpmax=20 / qpstep=4 / ip_ratio=1.40 / aq=1:1.00
Default : Yes
Forced : No
Color primaries : BT.709
Transfer characteristics : BT.709
Matrix coefficients : BT.709
DURATION : 01:38:39.998000000
NUMBER_OF_FRAMES : 141938
NUMBER_OF_BYTES : 1422482827
_STATISTICS_WRITING_APP : mkvmerge v8.5.2 ('Crosses') 64bit
_STATISTICS_WRITING_DATE_UTC : 2015-11-21 17:59:32
_STATISTICS_TAGS : BPS DURATION NUMBER_OF_FRAMES NUMBER_OF_BYTES

Audio
ID : 2
Format : Vorbis
Format settings, Floor : 1
Codec ID : A_VORBIS
Duration : 1h 38mn
Bit rate mode : Variable
Bit rate : 224 Kbps
Channel(s) : 2 channels
Sampling rate : 48.0 KHz
Compression mode : Lossy
Stream size : 158 MiB (11%)
Title : Stereo
Writing library : aoTuV 20110424 (UTC 2011-04-24)
Language : Japanese
Default : Yes
Forced : No
DURATION : 01:38:39.952000000
NUMBER_OF_FRAMES : 507226
NUMBER_OF_BYTES : 142388081
_STATISTICS_WRITING_APP : mkvmerge v8.5.2 ('Crosses') 64bit
_STATISTICS_WRITING_DATE_UTC : 2015-11-21 17:59:32
_STATISTICS_TAGS : BPS DURATION NUMBER_OF_FRAMES NUMBER_OF_BYTES
Writing application : HandBrake
Дополнительная информация:
Предыстория игрового фильма «Хана и Алиса» 2004 года.

Внимание! Вы не авторизировались - скачанный по ссылкам ниже торрент не будет учитываться в вашем личном профиле.

Hana to Alice ~Satsujin Jiken~ [2015, BDrip, 720p].torrent
Трекер: Зарегистрирован

Торрент


Magnet

Зарегистрирован: 2015-11-24 01:26
Скачан: 3 раз
Размер: 1.46 GB
Оценка: - (Голосов: 0)
Поблагодарили: 0
 
Список файлов
# \ Папка Размер


Последний раз редактировалось: batyrmastyr (2015-11-24 01:26), всего редактировалось 1 раз
Profile PM

arfist

Стаж: 10 лет

Сообщений: 4899

Провайдер: Дом.ru

Пол: Не определилось

Он-лайн: Нет

Карма: +1.77

post 22-Ноя-2015 13:15 (спустя 1 час 10 минут)
сплошное туридэ ?

_________________
( ╯°□°)╯
pic
Profile PM

batyrmastyr

Стаж: 11 лет

Сообщений: 6495

Откуда: Sekai

Провайдер: Не определен

Пол: Не определилось

Он-лайн: Нет

Карма: +33.44

post 22-Ноя-2015 13:27 (спустя 13 минут)
arfist
Неа, тут, похоже, задники срисовали с фотографий и отдельным слоем наложили персонажей. Не удивлюсь, если и ротоскопию использовали.

зы возможно докину сюда мангу и игровой фильм.

_________________
pic
я несу глупость во имя бака-тим
Gundam Team
Yuri TEAM
Термины
Profile PM
Показать сообщения:    
Ответить на тему

Текущее время: 16-Янв 18:04

Часовой пояс: GMT + 3



Вы не можете начинать темы
Вы не можете отвечать на сообщения
Вы не можете редактировать свои сообщения
Вы не можете удалять свои сообщения
Вы не можете голосовать в опросах
Вы не можете прикреплять файлы к сообщениям
Вы можете скачивать файлы
[  Execution time: 0.028 sec  |  MySQL: 0.029 sec (105%) in 21 queries  |  Mem: 410.55 KB / 1.47 MB / 1.04 MB  |  Load: 1 0.9 0.8  ]