Loading...
Error

Rakuen Tsuihou | -Expelled From Paradise- | Изгнанные из Рая [2014, боевик, меха, сэйнэн, фантастика] [BDrip, 720p] [JPN, субтитры: rus] (1)

Ответить на тему
Показать список качающих/скачавших
Размер: 2.78 GB
Зарегистрирован: 3 года 2 месяца
Скачан: 3 раза

Сидов:

Имя UL
Ratio
Передано Скорость Провайдер
up down up down
Run 0 - - - - Не определен
batyrmastyr ®  0 - - - - Не определен
показаны данные только за текущую сессию
 
     
 
 
Автор Сообщение

batyrmastyr

Стаж: 11 лет

Сообщений: 6495

Откуда: Sekai

Провайдер: Не определен

Пол: Не определилось

Он-лайн: Нет

Карма: +33.44

Rakuen Tsuihou
-Expelled From Paradise-
Изгнанные из Рая
楽園追放 -Expelled From Paradise-


Тип: полнометражный фильм

pic
Жанры: боевик, меха, сэйнэн, фантастика
Длительность: 1 эп. по 105 мин.
Время выхода: 15.11.2014
Страна: Япония

Режиссёр: Мидзусима Сэйдзи
Сценарист: Уробучи Гэна
Студия: Graphinica

Описание:
Очередное постапокалиптическое будущее. Превращенная в пустыню Земля населена некоторым количеством совершенно несимпатичных насекомых и чуть более симпатичных людей. Остальное человечество оцифровано и проживает на космической станции, благоденствуя в виртуальной реальности. Но в этом футуристическом раю свои проблемы. Пока добропорядочные граждане недоуменно выслушивают нелепые послания дерзкого хакера, Управление Безопасности роет землю в поисках злоумышленника. Вернее, Землю, отправляя на планету своих агентов с неплохими мехами. Приключения такого агента, Анжелы Бальзак, в суровом реальном мире складываются во вполне годный сюжет для приключенческого кино, хотя ему (как и многим картинам с упором на зрелищность) все же недостает и глубины, и продуманности. © 335neschastya


В энциклопедиях:   AniDB  |  World Art  |  Википедия

  • Качество видео:
    • BDrip
    Видео:
    • AVC, 1280 * 720, 3 540 кбит/с
    Аудио:
    • Японская | Vorbis, 2 канала, 224 кбит/с - оригинальная, в контейнере
    Субтитры:
    • Русские - внешними файлами - Zero, volta_john
    • Русские - внешними файлами - [GMC] - Sovereign, St_Ranger, Nerevar, DarkScorpio
    • Русские - внешними файлами - (Архив субтитров на Kage Project)


Скриншоты:
pic pic pic pic pic pic pic pic pic pic pic pic pic pic pic
Параметры видео | аудио:
General
Unique ID : 264639597175784805699409505825881544082 (0xC717BB82F7742B135599823D084B5592)
Complete name : /Users/batyrmastyr/Desktop/_VID/Rakuen Tsuihou ~Expelled from Paradise~ [2014, BDrip, 720p]/Rakuen Tsuihou ~Expelled from Paradise~ (BDRip 1280x720 H.264 Vorbis).mkv
Format : Matroska
Format version : Version 4 / Version 2
File size : 2.78 GiB
Duration : 1h 43mn
Overall bit rate mode : Variable
Overall bit rate : 3 840 Kbps
Movie name : Rakuen Tsuihou ~Expelled from Paradise~ (BDRip 1920x1080 x264 FLAC).mkv
Encoded date : UTC 2015-10-04 19:11:42
Writing application : mkvmerge v8.0.0 ('Til The Day That I Die') 64bit
Writing library : libebml v1.3.1 + libmatroska v1.4.2

Video
ID : 1
Format : AVC
Format/Info : Advanced Video Codec
Format profile : High@L4.0
Format settings, CABAC : Yes
Format settings, ReFrames : 6 frames
Codec ID : V_MPEG4/ISO/AVC
Duration : 1h 43mn
Bit rate : 3 540 Kbps
Width : 1 280 pixels
Height : 720 pixels
Display aspect ratio : 16:9
Frame rate mode : Constant
Frame rate : 23.976 fps
Color space : YUV
Chroma subsampling : 4:2:0
Bit depth : 8 bits
Scan type : Progressive
Bits/(Pixel*Frame) : 0.160
Stream size : 2.56 GiB (92%)
Writing library : x264 core 142 r2479 dd79a61
Encoding settings : cabac=1 / ref=6 / deblock=1:0:0 / analyse=0x3:0x133 / me=umh / subme=10 / psy=1 / psy_rd=1.00:0.00 / mixed_ref=1 / me_range=16 / chroma_me=1 / trellis=2 / 8x8dct=1 / cqm=0 / deadzone=21,11 / fast_pskip=1 / chroma_qp_offset=-2 / threads=12 / lookahead_threads=1 / sliced_threads=0 / nr=0 / decimate=0 / interlaced=0 / bluray_compat=0 / constrained_intra=0 / bframes=3 / b_pyramid=2 / b_adapt=2 / b_bias=0 / direct=3 / weightb=1 / open_gop=0 / weightp=1 / keyint=240 / keyint_min=24 / scenecut=40 / intra_refresh=0 / rc_lookahead=40 / rc=crf / mbtree=1 / crf=15.0 / qcomp=0.60 / qpmin=7 / qpmax=20 / qpstep=4 / ip_ratio=1.40 / aq=1:1.00
Default : Yes
Forced : No
Color primaries : BT.709
Transfer characteristics : BT.709
Matrix coefficients : BT.709
DURATION : 01:43:38.213000000
NUMBER_OF_FRAMES : 149088
NUMBER_OF_BYTES : 2816978799
_STATISTICS_WRITING_APP : mkvmerge v8.0.0 ('Til The Day That I Die') 64bit
_STATISTICS_WRITING_DATE_UTC : 2015-10-04 19:11:42
_STATISTICS_TAGS : BPS DURATION NUMBER_OF_FRAMES NUMBER_OF_BYTES

Audio
ID : 2
Format : Vorbis
Format settings, Floor : 1
Codec ID : A_VORBIS
Duration : 1h 43mn
Bit rate mode : Variable
Bit rate : 224 Kbps
Channel(s) : 2 channels
Sampling rate : 48.0 KHz
Compression mode : Lossy
Stream size : 166 MiB (6%)
Title : Stereo
Writing library : aoTuV 20110424 (UTC 2011-04-24)
Language : Japanese
Default : Yes
Forced : No
DURATION : 01:43:38.141000000
NUMBER_OF_FRAMES : 757213
NUMBER_OF_BYTES : 165116408
_STATISTICS_WRITING_APP : mkvmerge v8.0.0 ('Til The Day That I Die') 64bit
_STATISTICS_WRITING_DATE_UTC : 2015-10-04 19:11:42
_STATISTICS_TAGS : BPS DURATION NUMBER_OF_FRAMES NUMBER_OF_BYTES
Writing application : HandBrake

Внимание! Вы не авторизировались - скачанный по ссылкам ниже торрент не будет учитываться в вашем личном профиле.

Rakuen Tsuihou ~Expelled from Paradise~ [2015, BDrip, 720p].torrent
Трекер: Зарегистрирован

Торрент


Magnet

Зарегистрирован: 2015-10-28 23:26
Скачан: 3 раз
Размер: 2.78 GB
Оценка: 3.5 (Голосов: 2)
Поблагодарили: 3   (список)
 
Список файлов
# \ Папка Размер
Profile PM

batyrmastyr

Стаж: 11 лет

Сообщений: 6495

Откуда: Sekai

Провайдер: Не определен

Пол: Не определилось

Он-лайн: Нет

Карма: +33.44

post 28-Окт-2015 23:27 (спустя 1 минута)
Субтитры
Прикреплённый файл

_________________
pic
я несу глупость во имя бака-тим
Gundam Team
Yuri TEAM
Термины
Profile PM
Показать сообщения:    
Ответить на тему

Текущее время: 16-Янв 17:28

Часовой пояс: GMT + 3



Вы не можете начинать темы
Вы не можете отвечать на сообщения
Вы не можете редактировать свои сообщения
Вы не можете удалять свои сообщения
Вы не можете голосовать в опросах
Вы не можете прикреплять файлы к сообщениям
Вы можете скачивать файлы
[  Execution time: 0.051 sec  |  MySQL: 0.068 sec (135%) in 21 queries  |  Mem: 410.55 KB / 1.47 MB / 1.03 MB  |  Load: 1.7 1.1 1.1  ]