Loading...
Error

Imawa no Kuni no Alice | Арис в Пограничье [2014 - 2015, триллер] [DVDrip, 480p] [JPN, субтитры: rus] (3)

Ответить на тему
Показать список качающих/скачавших
Размер: 978 MB
Зарегистрирован: 3 года 3 месяца
Скачан: 2 раза

Сидов:

Имя UL
Ratio
Передано Скорость Провайдер
up down up down
batyrmastyr ®  0 6 MB - - - Дом.ru
показаны данные только за текущую сессию
 
     
 
 
Автор Сообщение

batyrmastyr

Стаж: 10 лет

Сообщений: 6488

Откуда: Sekai

Провайдер: ТТК

Пол: Не определилось

Он-лайн: Нет

Карма: +33.31

Imawa no Kuni no Alice
Арис в Пограничье
今際の国のアリス


Тип: OVA

pic
Жанры: триллер
Длительность: 3 эп. по 25 мин.
Время выхода: 17.10.2014 - 16.02.2015
Страна: Япония

Режиссёр: Татибана Хидэки
Сценарист: Накамура Рёсукэ
Снято по: манге Imawa no Kuni no Alice
Автор оригинала: Асо Харо
Студия: Silver Link

Описание:
Весьма заезженная на сегодняшний день тема. Скоро уже в печенках поселится.

Жил-был мальчик Арис, типичный неудачник по жизни. Отец любил гениального брата, а на него не обращал внимания. Какими-либо талантами в учебе и спорте не обладает. Обладает кучей комплексов и двумя друзьями. Арис-кун пожелал, чтобы его скучная жизнь исчезла и он оказался в другом мире, где смог бы себя реализовать. По велению некой (е***еской) силы его забрасывает с дружками в Погранчье, где, чтобы выжить, нужно играть в смертельные игры на выживание.

У Арис-куна вскоре проявляются "синдром Кайдзи" (кто смотрел, тот знает), и в критической ситуации он может анализировать и находить выход (как оказалось, это его суперспособность) и производить море слез. Друг Кусабэ - эдакий Рэмбо, а Тёта - тряпка-кун, с которым сделала ЭТО сисястая красотка (и тут мне непонятно, почему именно с ним).

Итак, видели мы такое ни раз: Ганц, Кайдзи, Бтум, и еще куча всякого в разных жанрах. ©Ferrante_89

Вот так надо снимать фильмы про игру на выживание. Всякие Голодные игры и рядом не лежали. © shiro-i


В энциклопедиях:   AniDB  |  World Art  |  Википедия

  • Качество видео:
    • DVDrip
    Видео:
    • AVC, 848 * 480, 1 745 кбит/с
    Аудио:
    • Японская | AC-3, 2 канала, 384 кбит/с - оригинальная, в контейнере
    Субтитры:


Скриншоты:
pic pic pic pic pic pic pic pic pic pic pic pic
Параметры видео | аудио:
General
Unique ID : 235162485658914716887247475682592516133 (0xB0EAA5B4F981A95393A8E57A7C756825)
Complete name : /Volumes/t/ongoing/Imawa no Kuni no Alice [2014, DVDrip]/Alice in Borderland/Imawa no Kuni no Alice/今際の国のアリス OVA 第01話 「game1 ♣3「くらぶのさん」」 (DVD 848x480p AVC AC3).mkv
Format : Matroska
Format version : Version 2
File size : 358 MiB
Duration : 23mn 3s
Overall bit rate : 2 173 Kbps
Encoded date : UTC 2014-11-01 15:23:22
Writing application : mkvmerge v7.3.0 ('Nouages') 32bit built on Oct 22 2014 18:44:01
Writing library : libebml v1.3.0 + libmatroska v1.4.1
DURATION : 00:23:02.848000000
NUMBER_OF_FRAMES : 43214
NUMBER_OF_BYTES : 66376704
_STATISTICS_WRITING_APP : mkvmerge v7.3.0 ('Nouages') 32bit built on Oct 22 2014 18:44:01
_STATISTICS_WRITING_DATE_UTC : 2014-11-01 15:23:22
_STATISTICS_TAGS : BPS DURATION NUMBER_OF_FRAMES NUMBER_OF_BYTES

Video
ID : 1
Format : AVC
Format/Info : Advanced Video Codec
Format profile : High@L4.1
Format settings, CABAC : Yes
Format settings, ReFrames : 10 frames
Codec ID : V_MPEG4/ISO/AVC
Duration : 23mn 3s
Bit rate : 1 745 Kbps
Width : 848 pixels
Height : 480 pixels
Display aspect ratio : 16:9
Frame rate mode : Constant
Frame rate : 23.976 fps
Color space : YUV
Chroma subsampling : 4:2:0
Bit depth : 8 bits
Scan type : Progressive
Bits/(Pixel*Frame) : 0.179
Stream size : 288 MiB (80%)
Writing library : x264 core 142 r2479 dd79a61
Encoding settings : cabac=1 / ref=10 / deblock=1:1:0 / analyse=0x3:0x113 / me=umh / subme=8 / psy=1 / psy_rd=0.60:0.00 / mixed_ref=1 / me_range=16 / chroma_me=1 / trellis=1 / 8x8dct=1 / cqm=0 / deadzone=21,11 / fast_pskip=1 / chroma_qp_offset=-4 / threads=4 / lookahead_threads=1 / sliced_threads=0 / nr=0 / decimate=1 / interlaced=0 / bluray_compat=0 / constrained_intra=0 / bframes=5 / b_pyramid=2 / b_adapt=2 / b_bias=0 / direct=3 / weightb=1 / open_gop=0 / weightp=2 / keyint=240 / keyint_min=23 / scenecut=40 / intra_refresh=0 / rc_lookahead=50 / rc=crf / mbtree=1 / crf=15.0 / qcomp=0.60 / qpmin=10 / qpmax=42 / qpstep=4 / vbv_maxrate=50000 / vbv_bufsize=50000 / crf_max=0.0 / nal_hrd=none / filler=0 / ip_ratio=1.40 / aq=1:0.90
Default : Yes
Forced : No

Audio
ID : 2
Format : AC-3
Format/Info : Audio Coding 3
Mode extension : CM (complete main)
Format settings, Endianness : Big
Codec ID : A_AC3
Duration : 23mn 3s
Bit rate mode : Constant
Bit rate : 384 Kbps
Channel(s) : 2 channels
Channel positions : Front: L R
Sampling rate : 48.0 KHz
Bit depth : 16 bits
Compression mode : Lossy
Stream size : 63.3 MiB (18%)
Language : Japanese
Default : Yes
Forced : No
Дополнительная информация:
Бонус к эксклюзивным ограниченным изданиям 12-го, 13-го и 14-го томов манги.

Внимание! Вы не авторизировались - скачанный по ссылкам ниже торрент не будет учитываться в вашем личном профиле.

Imawa no Kuni no Alice [2014, DVDrip].torrent
Трекер: Зарегистрирован

Торрент


Magnet

Зарегистрирован: 2015-06-20 15:52
Скачан: 2 раз
Размер: 978 MB
Оценка: - (Голосов: 0)
Поблагодарили: 0
 
Список файлов
# \ Папка Размер
Profile PM
Показать сообщения:    
Ответить на тему

Текущее время: 16-Окт 02:32

Часовой пояс: GMT + 3



Вы не можете начинать темы
Вы не можете отвечать на сообщения
Вы не можете редактировать свои сообщения
Вы не можете удалять свои сообщения
Вы не можете голосовать в опросах
Вы не можете прикреплять файлы к сообщениям
Вы можете скачивать файлы
[  Execution time: 0.145 sec  |  MySQL: 0.047 sec (32%) in 22 queries  |  Mem: 160.08 KB / 1.19 MB / 782.4 KB  |  Load: 1.9 1.5 1.4  ]