Loading...
Error

Gekijouban K: Missing Kings | Кей: Пропавшие короли [2014, магия, приключения, современное фентези] [BDrip, 720p] [JPN, субтитры: rus] (1)

Ответить на тему
Показать список качающих/скачавших
Размер: 2.46 GB
Зарегистрирован: 4 года 4 месяца
Скачан: 2 раза

Полного источника не было: 4 месяца 27 дней

 
     
 
 
Автор Сообщение

batyrmastyr

Стаж: 11 лет

Сообщений: 6510

Откуда: Sekai

Провайдер: ВТ (IXNN)

Пол: Otoko (M)

Он-лайн: Нет

Карма: +33.85

Gekijouban K: Missing Kings
Кей: Пропавшие короли
劇場版K MISSING KINGS


Тип: полнометражный фильм

pic
Жанры: магия, приключения, современное фентези
Длительность: 1 эп. по 75 мин.
Время выхода: 12.07.2014
Страна: Япония

Режиссёр: Судзуки Синго
Студия: Go Hands

Описание:
"Инцидент на Асинаке". Тот трагичный день, когда сошлись пути четырех одиноких Королей... Сколько месяцев минуло с тех пор? Все это время Куро и Нэко продолжали искать своего друга и владыку, Серебряного Короля, Сиро. Однако и самые преданные сторонники нуждаются в добрых новостях, и, не найдя ни малейшей подсказки о местоположении хозяина, Пёс и Кошка медленно начинают впадать в отчаяние. Но когда у них уже почти опустились руки, Куро и Нэко становятся свидетелями того, как за членами Хомры, Анной и Рикио, кто-то гонится. Похоже, назревает что-то серьезное… © shikimori
Продолжение сериала.

В энциклопедиях:   AniDB  |  Википедия  |  World Art

  • Качество видео:
    • BDrip
    Видео:
    • AVC, 1280 * 720, 4 488 кбит/с
    Аудио:
    • Японская | Vorbis, 2 канала, 224 кбит/с - оригинальная, в контейнере
    Субтитры:


Скриншоты:
pic pic pic pic pic pic pic pic pic pic pic pic pic pic pic pic pic
Параметры видео | аудио:
General
Unique ID : 289261086282224788644096675572365181609 (0xD99DA8A5EABCE430CCD6D8E60958C2A9)
Complete name : /Users/batyrmastyr/Desktop/_VID/Project-K ~Missing Kings~ [2015, BDrip, 720p]/Project-K ~Missing Kings~ (BDRip 1280x720 H.264 Vorbis).mkv
Format : Matroska
Format version : Version 4 / Version 2
File size : 2.46 GiB
Duration : 1h 13mn
Overall bit rate mode : Variable
Overall bit rate : 4 808 Kbps
Movie name : Project-K ~Missing Kings~
Encoded date : UTC 2015-05-03 06:53:27
Writing application : mkvmerge v7.7.0 ('Six Voices') 64bit built on Mar 7 2015 18:35:02
Writing library : libebml v1.3.1 + libmatroska v1.4.2

Video
ID : 1
Format : AVC
Format/Info : Advanced Video Codec
Format profile : High@L4.0
Format settings, CABAC : Yes
Format settings, ReFrames : 6 frames
Codec ID : V_MPEG4/ISO/AVC
Duration : 1h 13mn
Bit rate : 4 488 Kbps
Width : 1 280 pixels
Height : 720 pixels
Display aspect ratio : 16:9
Frame rate mode : Constant
Frame rate : 23.976 fps
Color space : YUV
Chroma subsampling : 4:2:0
Bit depth : 8 bits
Scan type : Progressive
Bits/(Pixel*Frame) : 0.203
Stream size : 2.30 GiB (93%)
Writing library : x264 core 142 r2479 dd79a61
Encoding settings : cabac=1 / ref=6 / deblock=1:0:0 / analyse=0x3:0x133 / me=umh / subme=10 / psy=1 / psy_rd=1.00:0.00 / mixed_ref=1 / me_range=16 / chroma_me=1 / trellis=2 / 8x8dct=1 / cqm=0 / deadzone=21,11 / fast_pskip=1 / chroma_qp_offset=-2 / threads=12 / lookahead_threads=1 / sliced_threads=0 / nr=0 / decimate=0 / interlaced=0 / bluray_compat=0 / constrained_intra=0 / bframes=3 / b_pyramid=2 / b_adapt=2 / b_bias=0 / direct=3 / weightb=1 / open_gop=0 / weightp=1 / keyint=240 / keyint_min=24 / scenecut=40 / intra_refresh=0 / rc_lookahead=40 / rc=crf / mbtree=1 / crf=15.0 / qcomp=0.60 / qpmin=7 / qpmax=20 / qpstep=4 / ip_ratio=1.40 / aq=1:1.00
Default : Yes
Forced : No
Color primaries : BT.709
Transfer characteristics : BT.709
Matrix coefficients : BT.709
DURATION : 01:13:12.389000000
NUMBER_OF_FRAMES : 105312
NUMBER_OF_BYTES : 2518530340
_STATISTICS_WRITING_APP : mkvmerge v7.7.0 ('Six Voices') 64bit built on Mar 7 2015 18:35:02
_STATISTICS_WRITING_DATE_UTC : 2015-05-03 06:53:27
_STATISTICS_TAGS : BPS DURATION NUMBER_OF_FRAMES NUMBER_OF_BYTES

Audio
ID : 2
Format : Vorbis
Format settings, Floor : 1
Codec ID : A_VORBIS
Duration : 1h 13mn
Bit rate mode : Variable
Bit rate : 224 Kbps
Channel(s) : 2 channels
Sampling rate : 48.0 KHz
Compression mode : Lossy
Stream size : 117 MiB (5%)
Title : Stereo
Writing library : aoTuV 20110424 (UTC 2011-04-24)
Language : Japanese
Default : Yes
Forced : No
DURATION : 01:13:12.333000000
NUMBER_OF_FRAMES : 514298
NUMBER_OF_BYTES : 119425493
_STATISTICS_WRITING_APP : mkvmerge v7.7.0 ('Six Voices') 64bit built on Mar 7 2015 18:35:02
_STATISTICS_WRITING_DATE_UTC : 2015-05-03 06:53:27
_STATISTICS_TAGS : BPS DURATION NUMBER_OF_FRAMES NUMBER_OF_BYTES
Writing application : HandBrake
BDrip 1080p - там.

Внимание! Вы не авторизировались - скачанный по ссылкам ниже торрент не будет учитываться в вашем личном профиле.

Project-K ~Missing Kings~ [2015, BDrip, 720p].torrent
Трекер: Зарегистрирован

Торрент


Magnet

Зарегистрирован: 2015-05-03 11:01
Скачан: 2 раз
Размер: 2.46 GB
Оценка: - (Голосов: 0)
Поблагодарили: 0
 
Список файлов
# \ Папка Project-K ~Missing Kings~ [2015, BDrip, 720p] Размер
1 Project-K ~Missing Kings~ (BDRip 1280x720 H.264 Vorbis).mkv 2.46 GB
2 Шрифты / 28_Days_Later_C.ttf 479 KB
Profile PM

batyrmastyr

Стаж: 11 лет

Сообщений: 6510

Откуда: Sekai

Провайдер: ВТ (IXNN)

Пол: Otoko (M)

Он-лайн: Нет

Карма: +33.85

post 03-Май-2015 11:05 (спустя 4 минуты)
Субтитры
Прикреплённый файл

_________________
pic
я несу глупость во имя бака-тим
Gundam Team
Yuri TEAM
Термины
Profile PM
Показать сообщения:    
Ответить на тему

Текущее время: 15-Сен 09:03

Часовой пояс: GMT + 3



Вы не можете начинать темы
Вы не можете отвечать на сообщения
Вы не можете редактировать свои сообщения
Вы не можете удалять свои сообщения
Вы не можете голосовать в опросах
Вы не можете прикреплять файлы к сообщениям
Вы можете скачивать файлы
[  Execution time: 0.047 sec  |  MySQL: 0.032 sec (67%) in 21 queries  |  Mem: 410.7 KB / 1.47 MB / 1.03 MB  |  Load: 0.8 0.8 0.7  ]