Loading...
Error

Inari, Konkon, Koi Iroha. OAD | Азбука любви и два волшебных слова | Боги, лисы и любовь [2014, романтика, сэйнэн] [BDrip, 720p] [JPN, субтитры: rus] (1)

Ответить на тему
Показать список качающих/скачавших
Размер: 485 MB
Зарегистрирован: 4 года
Скачан: 1 раз

Сидов:

Имя UL
Ratio
Передано Скорость Провайдер
up down up down
batyrmastyr ®  0 - - - - Не определен
показаны данные только за текущую сессию
 
     
 
 
Автор Сообщение

batyrmastyr

Стаж: 10 лет

Сообщений: 6480

Откуда: Sekai

Провайдер: ТТК

Пол: Не определилось

Он-лайн: Нет

Карма: +32.19

Inari, Konkon, Koi Iroha.
Азбука любви и два волшебных слова
Боги, лисы и любовь
いなり, こんこん, 恋いろは.


Тип: OAD

pic
Жанры: романтика, сэйнэн
Длительность: 1 эп. по 25 мин.
Время выхода: 26.06.2014
Страна: Япония

Режиссёр: Takahashi Tooru
Сценарист: Machida Touko
Снято по: одноимённой манге
Автор оригинала: Morohe Yoshida
Студия: Production IMS

Описание:
Фушими Инари — добрая, весёлая, но робкая девочка, которая влюбилась в своего одноклассника.
Однажды, отчаявшись и растерявшись, она посещает её любимую святыню Инари, где с ней случается чудо. Поможет ли оно Инари в её любви, или же, наоборот, всё станет куда хуже? © Sovereign


В энциклопедиях:   AniDB  |  ANN  |  World Art  |  Wikipedia

  • Качество видео:
    • BDrip
    Видео:
    • AVC, 1280 * 720, 2 584 кбит/с
    Аудио:
    • Японская | Vorbis, 2 канала, 224 кбит/с - оригинальная, в контейнере
    Субтитры:


Дополнительная информация
Бонусный эпизод прилагавшийся к 8 тому манги. Можно считать 11-м эпизодом сериала.
Скриншоты:
pic pic pic pic pic pic pic pic pic pic pic
Параметры видео | аудио:
General
Unique ID : 241034536230379345656275796313339254088 (0xB55590270B282117A9A0C1AEE7D2D548)
Complete name : /Volumes/twintails/2014/Inari, Konkon, Koi Iroha [2014, BDrip, 720p]/Inari, Konkon, Koi Iroha - 11 (BDRip 1280x720 x264 Vorbis).mkv
Format : Matroska
File size : 484 MiB
Duration : 23mn 38s
Overall bit rate : 2 865 Kbps
Movie name : Inari, Konkon, Koi Iroha - 11
Encoded date : UTC 2014-07-19 16:06:20
Writing application : mkvmerge v7.0.0 ('Where We Going') 64bit built on Jul 19 2014 19:11:15
Writing library : libebml v1.3.0 + libmatroska v1.4.1

Video
ID : 1
Format : AVC
Format/Info : Advanced Video Codec
Format profile : High@L4.0
Format settings, CABAC : Yes
Format settings, ReFrames : 6 frames
Format settings, GOP : M=4, N=24
Codec ID : V_MPEG4/ISO/AVC
Duration : 23mn 38s
Bit rate : 2 584 Kbps
Width : 1 280 pixels
Height : 720 pixels
Display aspect ratio : 16:9
Frame rate : 23.976 fps
Color space : YUV
Chroma subsampling : 4:2:0
Bit depth : 8 bits
Scan type : Progressive
Bits/(Pixel*Frame) : 0.117
Stream size : 437 MiB (90%)
Title : 1
Writing library : x264 core 130 r2273 b3065e6
Encoding settings : cabac=1 / ref=6 / deblock=1:0:0 / analyse=0x3:0x133 / me=umh / subme=10 / psy=1 / psy_rd=1.00:0.00 / mixed_ref=1 / me_range=16 / chroma_me=1 / trellis=2 / 8x8dct=1 / cqm=0 / deadzone=21,11 / fast_pskip=1 / chroma_qp_offset=-2 / threads=12 / lookahead_threads=1 / sliced_threads=0 / nr=0 / decimate=0 / interlaced=0 / bluray_compat=0 / constrained_intra=0 / bframes=3 / b_pyramid=2 / b_adapt=2 / b_bias=0 / direct=3 / weightb=1 / open_gop=0 / weightp=1 / keyint=240 / keyint_min=24 / scenecut=40 / intra_refresh=0 / rc_lookahead=40 / rc=crf / mbtree=1 / crf=15.0 / qcomp=0.60 / qpmin=7 / qpmax=20 / qpstep=4 / ip_ratio=1.40 / aq=1:1.00
Language : English
Color primaries : BT.709-5, BT.1361, IEC 61966-2-4, SMPTE RP177
Transfer characteristics : BT.709-5, BT.1361
Matrix coefficients : BT.709-5, BT.1361, IEC 61966-2-4 709, SMPTE RP177

Audio
ID : 2
Format : Vorbis
Format settings, Floor : 1
Codec ID : A_VORBIS
Duration : 23mn 38s
Bit rate : 224 Kbps
Channel(s) : 2 channels
Sampling rate : 48.0 KHz
Compression mode : Lossy
Stream size : 37.9 MiB (8%)
Writing library : aoTuV 20110424 (UTC 2011-04-24)
Language : Japanese
Порядок просмотра:
  1. ТВ, 10 эпизодов - [BDrip, 1080p], [BDrip, 720p], [TVrip, 720p]
  2. OAD, 1 эпизод - [BDrip, 1080p], [BDrip, 720p]

Внимание! Вы не авторизировались - скачанный по ссылкам ниже торрент не будет учитываться в вашем личном профиле.

Inari, Konkon, Koi Iroha OAD [2014, BDrip, 720p].torrent
Трекер: Зарегистрирован

Торрент


Magnet

Зарегистрирован: 2014-07-19 21:11
Скачан: 1 раз
Размер: 485 MB
Оценка: - (Голосов: 0)
Поблагодарили: 0
 
Список файлов
# \ Папка Размер

_________________
pic
я несу глупость во имя бака-тим
Gundam Team
Yuri TEAM
Термины


Последний раз редактировалось: batyrmastyr (2014-07-19 21:16), всего редактировалось 1 раз
Profile PM

batyrmastyr

Стаж: 10 лет

Сообщений: 6480

Откуда: Sekai

Провайдер: ТТК

Пол: Не определилось

Он-лайн: Нет

Карма: +32.19

post 19-Июл-2014 21:13 (спустя 1 минута)
Субтитры
Прикреплённый файл

_________________
pic
я несу глупость во имя бака-тим
Gundam Team
Yuri TEAM
Термины
Profile PM
Показать сообщения:    
Ответить на тему

Текущее время: 17-Авг 20:10

Часовой пояс: GMT + 3



Вы не можете начинать темы
Вы не можете отвечать на сообщения
Вы не можете редактировать свои сообщения
Вы не можете удалять свои сообщения
Вы не можете голосовать в опросах
Вы не можете прикреплять файлы к сообщениям
Вы можете скачивать файлы
[  Execution time: 0.081 sec  |  MySQL: 0.022 sec (27%) in 22 queries  |  Mem: 160.08 KB / 1.21 MB / 800.28 KB  |  Load: 1.1 1.8 2.1  ]