Loading...
Error

Redline | Красная черта [2009, приключения, фантастика, романтика] [BDrip, 720p] [JPN, без субтитров]

Ответить на тему
Показать список качающих/скачавших
Размер: 2.76 GB
Зарегистрирован: 7 лет 9 месяцев
Скачан: 45 раз

Полного источника не было: 3 месяца 26 дней

 
     
 
 
Автор Сообщение

MasterM

Стаж: 11 лет

Сообщений: 128

Провайдер: ВТ (IXNN)

Пол: Otoko (M)

Он-лайн: Нет

Карма: 0.00

pic
Redline
Красная черта
レッドライン

Тип: полнометражный фильм
Жанры: приключения, фантастика, романтика
Длительность: 100 мин.
Год выпуска: 2009
Страна: Япония

Режиссер: Койкэ Такэси
Сценарий: Исии Кацухито
Автор оригинала: Исии Кацухито
Студия: Madhouse Studios

Описание:
Главный герой, Джи Пи, вырос в трущобах и нищите, но однажды он увидел, как по улице едет автомобиль, и он понял это его судьба. Теперь он вырос, у него есть друзья и враги, и мечта победить в чемпионате М3, самом скоростном и опасном виде гонок, где правило одно - правил нет, есть только победа.

В энциклопедияхWorld Art  |  AniDB  |  ANN

Качество: BDrip
Видео: AVC, 1280x720, 3548 кбит/с
Аудио: Японский | AAC, 6 каналов, 316 кбит/с

Наличие хардсаба: нет
Наличие цензуры: нет
Перевод: нет | русские субтитры тут

Источник релиза: [한샛-Raws]


Скриншоты
pic pic pic
pic pic pic
pic pic pic
pic pic pic

MediaInfo
General
Complete name : D:\[한샛-Raws] REDLINE (BD 1280x720 x264 AAC).mp4
Format : MPEG-4
Format profile : Base Media
Codec ID : isom
File size : 2.76 GiB
Duration : 1h 42mn
Overall bit rate : 3 867 Kbps
Encoded date : UTC 2011-08-16 23:28:43
Tagged date : UTC 2011-08-16 23:28:43

Video
ID : 1
Format : AVC
Format/Info : Advanced Video Codec
Format profile : High@L3.1
Format settings, CABAC : Yes
Format settings, ReFrames : 9 frames
Codec ID : avc1
Codec ID/Info : Advanced Video Coding
Duration : 1h 42mn
Bit rate mode : Variable
Bit rate : 3 548 Kbps
Maximum bit rate : 42.3 Mbps
Width : 1 280 pixels
Height : 720 pixels
Display aspect ratio : 16:9
Frame rate mode : Constant
Frame rate : 23.976 fps
Color space : YUV
Chroma subsampling : 4:2:0
Bit depth : 8 bits
Scan type : Progressive
Bits/(Pixel*Frame) : 0.161
Stream size : 2.53 GiB (92%)
Title : Imported with GPAC 0.4.6-DEV (internal rev. 7)
Writing library : x264 core 115
Encoding settings : cabac=1 / ref=9 / deblock=1:-2:-2 / analyse=0x3:0x113 / me=umh / subme=7 / psy=1 / psy_rd=1.00:0.00 / mixed_ref=1 / me_range=16 / chroma_me=1 / trellis=0 / 8x8dct=1 / cqm=0 / deadzone=21,11 / fast_pskip=1 / chroma_qp_offset=-2 / threads=14 / sliced_threads=0 / nr=0 / decimate=1 / interlaced=0 / bluray_compat=0 / constrained_intra=0 / bframes=3 / b_pyramid=0 / b_adapt=1 / b_bias=0 / direct=1 / weightb=0 / open_gop=0 / weightp=0 / keyint=250 / keyint_min=25 / scenecut=0 / intra_refresh=0 / rc_lookahead=40 / rc=crf / mbtree=1 / crf=18.0 / qcomp=0.60 / qpmin=10 / qpmax=51 / qpstep=4 / ip_ratio=1.40 / aq=1:1.00
Encoded date : UTC 2011-08-16 23:28:43
Tagged date : UTC 2011-08-16 23:34:21

Audio
ID : 2
Format : AAC
Format/Info : Advanced Audio Codec
Format profile : LC
Codec ID : 40
Duration : 1h 42mn
Bit rate mode : Variable
Bit rate : 316 Kbps
Maximum bit rate : 419 Kbps
Channel(s) : 6 channels
Channel positions : Front: L C R, Side: L R, LFE
Sampling rate : 48.0 KHz
Compression mode : Lossy
Stream size : 230 MiB (8%)
Title : Imported with GPAC 0.4.6-DEV (internal rev. 7)
Encoded date : UTC 2011-08-16 23:33:37
Tagged date : UTC 2011-08-16 23:34:21


Внимание! Вы не авторизировались - скачанный по ссылкам ниже торрент не будет учитываться в вашем личном профиле.

Redline.torrent
Трекер: Зарегистрирован

Торрент


Magnet

Зарегистрирован: 2011-08-31 21:28
Скачан: 45 раз
Размер: 2.76 GB
Оценка: 4.8 (Голосов: 5)
Поблагодарили: 7   (список)
 
Список файлов
# \ Папка Redline Размер
1 [한샛-Raws] REDLINE (BD 1280x720 x264 AAC).mp4 2.76 GB


Последний раз редактировалось: MasterM (2012-01-10 16:25), всего редактировалось 2 раз(а)
Profile PM

Branday

Стаж: 10 лет

Сообщений: 41

Откуда: NiNo

Провайдер: Дом.ru

Пол: Не определилось

Он-лайн: Нет

Карма: 0.00

post 10-Янв-2012 14:52 (спустя 4 месяца 9 дней)
Profile PM

Svoy

Стаж: 11 лет

Сообщений: 1141

Откуда: Russian Detroit

Провайдер: Не определен

Пол: Otoko (M)

Он-лайн: Нет

Карма: +0.02

post 10-Янв-2012 15:42 (спустя 50 минут)
ссыль на сабы битая
вот нормальная
http://www.fansubs.ru/base.php?id=3535

_________________
pic
[Автозавод-team] [Claymore-фан] [Советский Тачикома]
http://vkontakte.ru/svoy83
Profile PM

MasterM

Стаж: 11 лет

Сообщений: 128

Провайдер: ВТ (IXNN)

Пол: Otoko (M)

Он-лайн: Нет

Карма: 0.00

post 10-Янв-2012 16:26 (спустя 43 минуты)

Svoy писал(а):

ссыль на сабы битая
вот нормальная
http://www.fansubs.ru/base.php?id=3535
спасибо.
исправил
Profile PM

MasterM

Стаж: 11 лет

Сообщений: 128

Провайдер: ВТ (IXNN)

Пол: Otoko (M)

Он-лайн: Нет

Карма: 0.00

post 06-Июн-2013 12:47 (спустя 1 год 4 месяца)
Эту раздачу более не поддерживаю.
Profile PM
Показать сообщения:    
Ответить на тему

Текущее время: 20-Июн 05:49

Часовой пояс: GMT + 3



Вы не можете начинать темы
Вы не можете отвечать на сообщения
Вы не можете редактировать свои сообщения
Вы не можете удалять свои сообщения
Вы не можете голосовать в опросах
Вы не можете прикреплять файлы к сообщениям
Вы можете скачивать файлы
[  Execution time: 0.024 sec  |  MySQL: 0.024 sec (102%) in 22 queries  |  Mem: 410.7 KB / 1.48 MB / 1.06 MB  |  Load: 0.2 0.2 0.2  ]