Loading...
Error

Urusei Yatsura Movie 6 : Always My Darling | Those Obnoxious Aliens: Always My Darling | Несносные пришельцы фильм 6 : Навсегда мой любимый [1991, приключения, комедия, романтика, фантастика] [DVDrip, 480p, без хардсаба] [JPN+ENG , ансаб]

Ответить на тему
Показать список качающих/скачавших
Размер: 992 MB
Зарегистрирован: 6 лет 8 месяцев
Скачан: 4 раза

Полного источника не было: 3 года 1 месяц

 
     
 
 
Автор Сообщение

alias1923

Стаж: 8 лет 2 месяца

Сообщений: 48

Провайдер: Не определен

Пол: Otoko (M)

Он-лайн: Нет

Карма: +0.16

pic
Urusei Yatsura Movie 6 : Always My Darling
Those Obnoxious Aliens: Always My Darling
Несносные пришельцы фильм 6 : Навсегда мой любимый
うる星やつら いつだってマイ・ダーリン
Тип: Полнометражный фильм
Жанры: приключения, комедия, романтика, фантастика
Длительность: 77 мин.
Год выпуска: 1991
Страна: Япония

Режиссер: Ямада Кацухиса
Снято по: Urusei Yatsura
Автор оригинала: Румико Такахаси
Студия: Kitty Films

Описание: Система галактического глобального поиска информации вновь называет имя Атару. Но каков был запрос? И кому он понадобился?

В то же время, где-то на далекой планете, принцесса Люпика решает непростую задачу. Согласно традиции, ей пора "выбирать принца", а ни один из кандидатов не устраивает, ибо тот кто устраивает - вовсе даже не принц. Ах, если бы можно было не произносить эти "трудные слова", а заранее все гарантировать с помощью любовного эликсира… Говорят, он счастья не приносит, но как устоять пред искушением?


В энциклопедияхWorld Art  |  AniDB

Качество: DVDrip
Видео: AVC , 640х360 , 1 408 Kbps
Аудио: Японский | MP3 , 208 Kbps , 2 channels, 48.0 KHz

Наличие хардсаба: нет
Перевод: субтитры : RUS ( Внешние во втором посте )

Источник релиза: WWW.URUSEI-YATSURA.RU
Авторы субтитров: Tsubasa-Anime


Скринлист
pic
Скриншоты
pic
pic
pic
pic
pic
pic
pic
pic
pic
MediaInfo


General
Unique ID : 173035038934066994242661449892152247910 (0x822D56172CFA8779A09955B83A3C8666)
Complete name : D:\Urusei Yatsura\Urusei Yatsura Movie 6 - Always My Darling\Urusei Yatsura Movie 6 - Always My Darling.mkv
Format : Matroska
Format version : Version 1
File size : 992 MiB
Duration : 1h 17mn
Overall bit rate mode : Variable
Overall bit rate : 1 794 Kbps
Encoded date : UTC 2006-11-27 13:45:30
Writing application : mkvmerge v1.7.0 ('What Do You Take Me For') built on Apr 28 2006 17:20:19
Writing library : libebml v0.7.7 + libmatroska v0.8.0

Video
ID : 1
Format : AVC
Format/Info : Advanced Video Codec
Format profile : High@L5.1
Format settings, CABAC : Yes
Format settings, ReFrames : 2 frames
Codec ID : H264
Duration : 1h 17mn
Bit rate : 1 408 Kbps
Width : 640 pixels
Height : 480 pixels
Display aspect ratio : 4:3
Frame rate : 29.970 fps
Color space : YUV
Chroma subsampling : 4:2:0
Bit depth : 8 bits
Scan type : Progressive
Bits/(Pixel*Frame) : 0.153
Stream size : 742 MiB (75%)
Writing library : x264 core 50 svn-568
Encoding settings : cabac=1 / ref=1 / deblock=1:0:0 / analyse=0x3:0x113 / me=hex / subme=5 / brdo=0 / mixed_ref=0 / me_range=16 / chroma_me=1 / trellis=1 / 8x8dct=1 / cqm=0 / chroma_qp_offset=0 / slices=1 / nr=0 / decimate=1 / bframes=2 / b_pyramid=0 / b_adapt=1 / b_bias=0 / direct=2 / wpredb=1 / bime=0 / keyint=250 / keyint_min=25 / scenecut=40 / rc=2pass / bitrate=1408 / ratetol=1.0 / rceq='blurCplx^(1-qComp)' / qcomp=0.60 / qpmin=10 / qpmax=51 / qpstep=4 / cplxblur=20.0 / qblur=0.5 / ip_ratio=1.40 / pb_ratio=1.30
Language : English
Default : Yes
Forced : No

Audio #1
ID : 2
Format : Vorbis
Format settings, Floor : 1
Codec ID : A_VORBIS
Duration : 1h 17mn
Bit rate mode : Variable
Bit rate : 208 Kbps
Channel(s) : 2 channels
Sampling rate : 48.0 KHz
Compression mode : Lossy
Delay relative to video : -67ms
Stream size : 115 MiB (12%)
Writing library : libVorbis 1.0.1 (UTC 2003-09-09)
Language : Japanese
Default : Yes
Forced : No
Writing application : Made with BeSweet v1.5b30
Encoded_Application/Url : http://DSPguru.doom9.org

Audio #2
ID : 3
Format : Vorbis
Format settings, Floor : 1
Codec ID : A_VORBIS
Duration : 1h 17mn
Bit rate mode : Variable
Bit rate : 208 Kbps
Channel(s) : 2 channels
Sampling rate : 48.0 KHz
Compression mode : Lossy
Delay relative to video : -67ms
Stream size : 115 MiB (12%)
Writing library : libVorbis 1.0.1 (UTC 2003-09-09)
Language : English
Default : No
Forced : No
Writing application : Made with BeSweet v1.5b30
Encoded_Application/Url : http://DSPguru.doom9.org

Text #1
ID : 4
Format : SSA
Codec ID : S_TEXT/SSA
Codec ID/Info : Sub Station Alpha
Compression mode : Lossless
Language : English
Default : Yes
Forced : No

Text #2
ID : 5
Format : VobSub
Muxing mode : zlib
Codec ID : S_VOBSUB
Codec ID/Info : The same subtitle format used on DVDs
Language : English
Default : No
Forced : No

Внимание! Вы не авторизировались - скачанный по ссылкам ниже торрент не будет учитываться в вашем личном профиле.

Urusei Yatsura Movie 6 - Always My Darling.mkv.torrent
Трекер: Зарегистрирован

Торрент


Magnet

Зарегистрирован: 2012-04-30 11:47
Скачан: 4 раз
Размер: 992 MB
Оценка: 4.5 (Голосов: 2)
Поблагодарили: 2   (список)
 
Список файлов
Файл Urusei Yatsura Movie 6 - Always My Darling.mkv 992 MB


Последний раз редактировалось: alias1923 (2012-04-30 11:54), всего редактировалось 1 раз
Profile PM

alias1923

Стаж: 8 лет 2 месяца

Сообщений: 48

Провайдер: Не определен

Пол: Otoko (M)

Он-лайн: Нет

Карма: +0.16

post 30-Апр-2012 11:53 (спустя 6 минут)
Сабы к 6 фильму
Прикреплённый файл

Сабы к 6 фильму

Profile PM
Показать сообщения:    
Ответить на тему

Текущее время: 17-Янв 10:49

Часовой пояс: GMT + 3



Вы не можете начинать темы
Вы не можете отвечать на сообщения
Вы не можете редактировать свои сообщения
Вы не можете удалять свои сообщения
Вы не можете голосовать в опросах
Вы не можете прикреплять файлы к сообщениям
Вы можете скачивать файлы
[  Execution time: 0.079 sec  |  MySQL: 0.033 sec (42%) in 21 queries  |  Mem: 410.57 KB / 1.46 MB / 1.03 MB  |  Load: 0.8 1 1  ]