Loading...
Error

Поиск

Параметры запроса
Ключевые слова

  

Поиск по автору

 

Вы можете использовать + (знак "плюс" написанный слитно перед словом: "+слово") чтобы определить слова, которые должны быть в результатах и - (знак "минус") для слов, которых не должно быть. Используйте * в качестве шаблона для частичного совпадения.

Форум:

Мои закачки
Время размещения:

 

Показывать результаты как:

 

Упорядочить по:

 

Результатов поиска: 386

Автор Сообщение

batyrmastyr

post 21-Фев-2014 00:16

Quote

Eroge! H mo Game mo Kaihatsu Zanmai
Порноигры! С головой — и в секс, и в разработку!
えろげー! ~Hもゲームも開発三昧~


Тип: OVA

pic
Жанры: гарем, большая грудь, лишение девственности
Длительность: 6 эп. по 30 мин.
Время выхода: 26.08.2011 - 25.03.2016
Страна: Япония

Режиссёр: Matano Ryuuzou
Снято по: по одноимённой игре
Автор оригинала: ClockUp
Студия: Collaboration Works

Описание:
Выпуск первой эротической игры студии Flower завершился полным провалом, и сотрудники остались без зарплаты. Впрочем, они не сотрудники, а сотрудницы — весь штат этой небольшой компании состоит из четырех миловидных девушек. У них внушительный стаж по части рисования додзинси и написания эротических новелл, и они добились некоторых успехов на этом поприще, но есть одно отягчающее обстоятельство: они все девственницы, и на результатах их труда сказывается отсутствие реального жизненного опыта. Для спасения положения на работу в компанию был срочно принят молодой человек, который прошел несколько сотен хентайных игр и стал, по сути, экспертом. Но вот беда: он тоже девственник, и реальной практики у него тоже нет. Тем не менее, теперь никто не мешает коллективу Flower обрести столько опыта, сколько позволит фантазия. Но исключительно ради сбора материала и последующего успеха нового проекта!
© Pelikan


В энциклопедиях:   AniDB  |  World Art

  • Качество видео:
    • DVDrip, есть цензура
    Видео:
    • AVC, 720 * 480, 499 кбит/с
    Аудио:
    • Японская | AAC, 2 канала, 161 кбит/с - оригинальная, в контейнере
    Субтитры:
    • Английские - внешними файлами - [FAKKU] (серии 1-2), [SubDESU-H] (3-5)
    • Русские - внешними файлами - (Архив субтитрво на Kage Project) - Pelikan (1-я серия), Orchello aka Sin (2-я), Svoychuvak (3-я серия), Браен (4-я серия), LookerA (5-я серия)
Скриншоты:
pic pic pic pic pic pic pic pic pic pic pic pic pic pic pic pic pic pic pic pic pic pic
Параметры видео | аудио:
General
Complete name : /Volumes/t/src/Eroge! H mo Game mo Kaihatsu Zanmai (DVD 720x480 x264 AAC)/Eroge! H mo Game mo Kaihatsu Zanmai - 01 [Raw] (DVD 720x480 x264 AAC) [C5AF09D3].mp4
Format : MPEG-4
Format profile : Base Media
Codec ID : isom
File size : 141 MiB
Duration : 29mn 36s
Overall bit rate mode : Variable
Overall bit rate : 664 Kbps
Encoded date : UTC 2015-01-03 13:57:28
Tagged date : UTC 2015-01-03 13:57:28

Video
ID : 1
Format : AVC
Format/Info : Advanced Video Codec
Format profile : High@L4.0
Format settings, CABAC : Yes
Format settings, ReFrames : 16 frames
Codec ID : avc1
Codec ID/Info : Advanced Video Coding
Duration : 29mn 36s
Bit rate : 499 Kbps
Maximum bit rate : 6 088 Kbps
Width : 720 pixels
Height : 480 pixels
Display aspect ratio : 16:9
Original display aspect ratio : 16:9
Frame rate mode : Constant
Frame rate : 23.976 fps
Standard : NTSC
Color space : YUV
Chroma subsampling : 4:2:0
Bit depth : 8 bits
Scan type : Progressive
Bits/(Pixel*Frame) : 0.060
Stream size : 106 MiB (75%)
Title : Road to Heaven
Writing library : x264 core 142 r2431 ac76440
Encoding settings : cabac=1 / ref=16 / deblock=1:1:1 / analyse=0x3:0x133 / me=tesa / subme=11 / psy=1 / psy_rd=0.40:0.00 / mixed_ref=1 / me_range=24 / chroma_me=1 / trellis=2 / 8x8dct=1 / cqm=0 / deadzone=21,11 / fast_pskip=0 / chroma_qp_offset=-2 / threads=6 / lookahead_threads=1 / sliced_threads=0 / nr=0 / decimate=1 / interlaced=0 / bluray_compat=0 / constrained_intra=0 / bframes=16 / b_pyramid=2 / b_adapt=2 / b_bias=0 / direct=3 / weightb=1 / open_gop=0 / weightp=2 / keyint=240 / keyint_min=23 / scenecut=40 / intra_refresh=0 / rc_lookahead=60 / rc=crf / mbtree=1 / crf=18.0 / qcomp=0.60 / qpmin=0 / qpmax=69 / qpstep=4 / ip_ratio=1.40 / aq=1:0.60
Encoded date : UTC 2015-01-03 13:57:28
Tagged date : UTC 2015-01-03 13:58:07

Audio
ID : 2
Format : AAC
Format/Info : Advanced Audio Codec
Format profile : LC
Codec ID : 40
Duration : 29mn 36s
Bit rate mode : Variable
Bit rate : 161 Kbps
Maximum bit rate : 216 Kbps
Channel(s) : 2 channels
Channel positions : Front: L R
Sampling rate : 48.0 KHz
Compression mode : Lossy
Stream size : 34.1 MiB (24%)
Title : Original
Language : Japanese
Encoded date : UTC 2015-01-02 14:08:09
Tagged date : UTC 2015-01-03 13:58:07

Menu
00:00:00.000 : Chapter 1
00:05:26.133 : Chapter 2
00:13:46.767 : Chapter 3
00:18:03.867 : Chapter 4
00:25:55.733 : Chapter 5
00:28:14.200 : Chapter 6

batyrmastyr

post 20-Фев-2014 21:38

Quote

Tsun Tsun Maid wa Ero Ero Desu
Моя дерзкая горничная
ツンツンメイドはエロエロです


Тип: OVA

pic
Жанры: большая грудь, лишение девственности
Длительность: 2 эп. по 30 мин.
Время выхода: 02.03.2013 - 24.05.2013
Страна: Япония

Режиссёр: Kotobuki Ranko
Автор оригинала: France Shoin Bishoujo Bunko
Студия: Studio 1st

Описание:
У Макио, как и у многих героев японской аниме индустрии, есть подруга детства, Кириха, которая со временем прибавила не только в росте, но и в прочих, сексуально-возбуждающих юную фантазию заядлого онаниста, местах. Посему, когда спросонья наш герой увидел перед глазами красивую девушку в облике сексапильной служанки, он решил что это часть чудесного сна. Попытка же прижаться к пышным формам привели к окончательному и жёсткому пробуждению необычным приёмом – ёжик в лицо. Реальный ёжик (ручная зверушка Кирихи) – в реальное лицо перевозбуждённого юноши. Поведав страдальцу о том, что с сегодняшнего дня, по просьбе предков Макио, она будет приглядывать за его домом, девушка уже через пару минут обнаруживает, что главный герой сбрасывает «сексуальное напряжение» привычным для себя, ручным способом. Кириха, несмотря на то, что сама ещё девственница, решает стать для Макио проводником в реальный мир сексуальных забав… © caifrat


В энциклопедиях:   AniDB  |  World Art

  • Источник релиза:
    • [SubDESU-H]
    Качество видео:
    • DVDrip, есть цензура
    Видео:
    • AVC, 1280 * 720, 1 513 кбит/с
    Аудио:
    • Японская | AAC, 2 канала, 192 кбит/с - оригинальная, в контейнере

  • Источник релиза:
    • [SubDESU-H]
    Качество видео:
    • DVDrip, есть цензура
    Видео:
    • AVC 10bit, 852 * 480, 899 кбит/с
    Аудио:
    • Японская | AC-3, 2 канала, 224 кбит/с - оригинальная, в контейнере

  • Субтитры:
    • Английские - отключаемые, встроенные
    • Русские - внешними файлами - (Архив субтитров на Kage Project)
    • Русские - внешними файлами (во 2-м посте) - Svoychuvak
Скриншоты:
pic pic pic pic pic pic pic pic pic pic pic pic pic pic pic pic
Параметры видео | аудио:
MediaInfo
General
Complete name : /Users/batyrmastyr/Downloads/torrent/[SubDESU-H] Tsun Tsun Maid wa Ero Ero Desu - 01v0 (1280x720 x264 AAC) [F9FEE715].mp4
Format : MPEG-4
Format profile : Base Media
Codec ID : isom
File size : 198 MiB
Duration : 16mn 11s
Overall bit rate : 1 708 Kbps
Encoded date : UTC 2013-04-13 19:27:38
Tagged date : UTC 2013-04-13 19:27:38

Video
ID : 1
Format : AVC
Format/Info : Advanced Video Codec
Format profile : High@L4.0
Format settings, CABAC : Yes
Format settings, ReFrames : 9 frames
Codec ID : avc1
Codec ID/Info : Advanced Video Coding
Duration : 16mn 11s
Bit rate mode : Variable
Bit rate : 1 513 Kbps
Maximum bit rate : 5 915 Kbps
Width : 1 280 pixels
Height : 720 pixels
Display aspect ratio : 16:9
Frame rate mode : Constant
Frame rate : 23.976 fps
Color space : YUV
Chroma subsampling : 4:2:0
Bit depth : 8 bits
Scan type : Progressive
Bits/(Pixel*Frame) : 0.068
Stream size : 175 MiB (89%)
Writing library : x264 core 130 r2273 b3065e6
Encoding settings : cabac=1 / ref=9 / deblock=1:1:1 / analyse=0x3:0x133 / me=umh / subme=10 / psy=1 / psy_rd=1.20:0.40 / mixed_ref=1 / me_range=16 / chroma_me=1 / trellis=2 / 8x8dct=1 / cqm=0 / deadzone=21,11 / fast_pskip=1 / chroma_qp_offset=-4 / threads=3 / lookahead_threads=1 / sliced_threads=0 / nr=0 / decimate=0 / interlaced=0 / bluray_compat=0 / constrained_intra=0 / bframes=3 / b_pyramid=2 / b_adapt=2 / b_bias=0 / direct=3 / weightb=1 / open_gop=0 / weightp=2 / keyint=240 / keyint_min=23 / scenecut=40 / intra_refresh=0 / rc_lookahead=60 / rc=crf / mbtree=1 / crf=18.0 / qcomp=0.60 / qpmin=10 / qpmax=51 / qpstep=4 / ip_ratio=1.40 / aq=1:1.20
Encoded date : UTC 2013-04-13 18:39:14
Tagged date : UTC 2013-04-13 19:27:42
Matrix coefficients : BT.709-5, BT.1361, IEC 61966-2-4 709, SMPTE RP177

Audio
ID : 2
Format : AAC
Format/Info : Advanced Audio Codec
Format profile : LC
Codec ID : 40
Duration : 16mn 11s
Bit rate mode : Variable
Bit rate : 192 Kbps
Maximum bit rate : 228 Kbps
Channel(s) : 2 channels
Channel positions : Front: L R
Sampling rate : 48.0 KHz
Compression mode : Lossy
Stream size : 22.1 MiB (11%)
Encoded date : UTC 2013-04-13 19:26:53
Tagged date : UTC 2013-04-13 19:27:42
MediaInfo
General
Unique ID : 195695814589622580549309062873722889676 (0x9339A4971F43BC8196A14C4AA377A5CC)
Complete name : /Users/batyrmastyr/Downloads/torrent/[SubDESU-H] Tsun Tsun Maid wa Ero Ero Desu - 02 [DVDRip 10bit x264 852x480 AC3] [10B1C30A].mkv
Format : Matroska
File size : 129 MiB
Duration : 15mn 42s
Overall bit rate : 1 146 Kbps
Encoded date : UTC 2013-10-09 23:57:01
Writing application : mkvmerge v6.0.0 ('Coming Up For Air') built on Jan 20 2013 09:52:00
Writing library : libebml v1.3.0 + libmatroska v1.4.0
Cover : Yes / Yes / Yes / Yes / Yes / Yes / Yes / Yes / Yes / Yes / Yes / Yes

Video
ID : 1
Format : AVC
Format/Info : Advanced Video Codec
Format profile : High 10@L4.0
Format settings, CABAC : Yes
Format settings, ReFrames : 16 frames
Format settings, GOP : M=2, N=3
Codec ID : V_MPEG4/ISO/AVC
Duration : 15mn 42s
Bit rate : 899 Kbps
Width : 852 pixels
Height : 480 pixels
Display aspect ratio : 16:9
Frame rate : 23.976 fps
Color space : YUV
Chroma subsampling : 4:2:0
Bit depth : 10 bits
Scan type : Progressive
Bits/(Pixel*Frame) : 0.092
Stream size : 101 MiB (78%)
Writing library : x264 core 133 r2334 a3ac64b
Encoding settings : cabac=1 / ref=16 / deblock=1:1:1 / analyse=0x3:0x133 / me=umh / subme=10 / psy=1 / psy_rd=0.40:0.00 / mixed_ref=1 / me_range=24 / chroma_me=1 / trellis=2 / 8x8dct=1 / cqm=0 / deadzone=21,11 / fast_pskip=1 / chroma_qp_offset=-2 / threads=6 / lookahead_threads=1 / sliced_threads=0 / nr=0 / decimate=1 / interlaced=0 / bluray_compat=0 / constrained_intra=0 / bframes=10 / b_pyramid=2 / b_adapt=2 / b_bias=0 / direct=3 / weightb=1 / open_gop=0 / weightp=2 / keyint=240 / keyint_min=23 / scenecut=40 / intra_refresh=0 / rc_lookahead=60 / rc=crf / mbtree=1 / crf=16.0 / qcomp=0.60 / qpmin=0 / qpmax=81 / qpstep=4 / ip_ratio=1.40 / aq=1:0.60
Language : English

Audio
ID : 2
Format : AC-3
Format/Info : Audio Coding 3
Mode extension : CM (complete main)
Codec ID : A_AC3
Duration : 15mn 42s
Bit rate mode : Constant
Bit rate : 224 Kbps
Channel(s) : 2 channels
Channel positions : Front: L R
Sampling rate : 48.0 KHz
Bit depth : 16 bits
Compression mode : Lossy
Stream size : 25.2 MiB (20%)

Text
ID : 3
Format : ASS
Codec ID : S_TEXT/ASS
Codec ID/Info : Advanced Sub Station Alpha
Compression mode : Lossless
Дополнительная информация:
В одной из сцен на стене висит постер другого хентая - My Imouto: Koakuma na A Cup

batyrmastyr

post 11-Дек-2013 17:08

Quote

Ai no Katachi: Ecchi na Onna no Ko wa Kirai... Desuka?
The Shape of Love
Разновидности любви: Ненавидишь ли ты развратных девушек?
愛のカタチ ~エッチな女のコは嫌い...ですか?~


Тип: OVA

pic
Жанры: лишение девственности, анал, БДСМ, минет, групповуха, игрушки, Titsjob, Rape
Длительность: 2 эп. по 30 мин.
Время выхода: c 25.02.2008 по 25.06.2008
Страна: Япония

Режиссёр: Raika Ken
Студия: T-Rex

Описание:
Друзья детства, Касе и Маю не виделись много лет. Маю учится в колледже, а Касе имеет свой, постоянный источник дохода. Несмотря на разлуку, чувства девушки к Касе не утратили своей остроты и при встрече, она предлагает воспользоваться ее повзрослевшим телом и лишить ее девственности. Молодой человек, не долго думая, выполняет просьбу Маю, попутно раскрывая перед ней разнообразие сексуального мира. На следующий день, оставшись ненадолго одна, Маю обнаруживает в комнате своего бой-френда видеозаписи его сексуальных забав с другими девушками. Оказывается, Касе - фотограф, зарабатывающий на порнографическом фото и видео для журналов «для взрослых». К удивлению Касе, Маю не отвратила мысль о том, что ее любимый зарабатывает на жизнь подобным образом. Наоборот, девушку весьма возбудило увиденное на экране и она с радостью соглашается предоставить свое неопытное тело для его бизнеса… © Герасимов "Saotome" Алексей


В энциклопедиях:   AniDB

  • Качество видео:
    • DVDrip
    Видео:
    • AVC, 640 * 480, 950 кбит/с
    Аудио:
    • Русская | AC-3, 2 канала, 192 кбит/с - одноголосая, в контейнере - VashMax2
    • Японская | AAC, 2 канала, 254 кбит/с - оригинальная, в контейнере
    Субтитры:
    • Английские - внешними файлами - EROBEAT
    • Русские - внешними файлами - kotakota


Скриншоты:
pic pic pic pic pic pic pic pic pic pic pic pic pic pic
Параметры видео | аудио:
General
Unique ID : 173189141453580966074516070514849957167 (0x824B03EE6CA20FB2ACE0F0592357452F)
Complete name : /Users/batyrmastyr/Downloads/torrent/Ai_no_Katachi_Ecchi_OAV/Ai_no_Katachi_Ecchi_OAV_[01]_[ru_jp]_[VashMax2].mkv
Format : Matroska
File size : 298 MiB
Duration : 30mn 1s
Overall bit rate : 1 389 Kbps
Encoded date : UTC 2013-03-23 15:42:04
Writing application : mkvmerge v2.9.8 ('C'est le bon') built on Aug 13 2009 12:49:06
Writing library : libebml v0.7.7 + libmatroska v0.8.1

Video
ID : 1
Format : AVC
Format/Info : Advanced Video Codec
Format profile : High@L4.0
Format settings, CABAC : Yes
Format settings, ReFrames : 3 frames
Codec ID : V_MPEG4/ISO/AVC
Duration : 30mn 1s
Width : 640 pixels
Height : 480 pixels
Display aspect ratio : 4:3
Frame rate : 25.000 fps
Color space : YUV
Chroma subsampling : 4:2:0
Bit depth : 8 bits
Scan type : Progressive
Title : Video
Writing library : x264 core 78 r1318 fe83a90
Encoding settings : cabac=1 / ref=3 / deblock=1:0:0 / analyse=0x3:0x113 / me=hex / subme=7 / psy=1 / psy_rd=0.3:0.0 / mixed_ref=1 / me_range=16 / chroma_me=1 / trellis=1 / 8x8dct=1 / cqm=0 / deadzone=21,11 / chroma_qp_offset=-2 / threads=4 / nr=0 / decimate=1 / mbaff=0 / constrained_intra=0 / bframes=3 / b_pyramid=0 / b_adapt=1 / b_bias=0 / direct=1 / wpredb=1 / keyint=250 / keyint_min=1 / scenecut=40 / rc_lookahead=50 / rc=crf / mbtree=1 / crf=17.0 / qcomp=0.60 / qpmin=10 / qpmax=51 / qpstep=4 / ip_ratio=1.40 / aq=2:1.00
Language : Japanese

Audio #1
ID : 2
Format : AC-3
Format/Info : Audio Coding 3
Mode extension : CM (complete main)
Codec ID : A_AC3
Duration : 30mn 1s
Bit rate mode : Constant
Bit rate : 192 Kbps
Channel(s) : 2 channels
Channel positions : Front: L R
Sampling rate : 48.0 KHz
Bit depth : 16 bits
Compression mode : Lossy
Stream size : 41.2 MiB (14%)
Title : RU_VashMax2
Language : Russian

Audio #2
ID : 3
Format : AAC
Format/Info : Advanced Audio Codec
Format profile : LC
Codec ID : A_AAC
Duration : 30mn 1s
Channel(s) : 2 channels
Channel positions : Front: L R
Sampling rate : 48.0 KHz
Compression mode : Lossy
Title : OrigiNAL
Language : Japanese

batyrmastyr

post 11-Дек-2013 14:40

Quote

Tropical Kiss
Тропический поцелуй
トロピカルKISS


Тип: OVA

pic
Жанры: хентай, эротика, большие сиськи, лишение девственности
Длительность: 2 эп. по 30 мин.
Время выхода: 26.10.2012 - 28.12.2012
Страна: Япония

Режиссёр: Matano Ryuuzou
Снято по: хентайной игре Tropical Kiss
Автор оригинала: Twinkle
Студия: Collaboration Works

Описание:
Кайто покинул родной город с мечтой стать важным человеком. Но, не имея четкого плана в голове, он бездарно прожигает свою жизнь. Скоро он понимает, что это плохо. Поэтому Кайто устраивается на работу в только что открывшееся курортное заведение “A・ЛО・ХА”. Но там он встречает девушек, с которыми до этого имел отношения различной степени серьезности...


В энциклопедиях:   AniDB

  • Источник релиза:
    • [HQR]
    Качество видео:
    • DVDrip, есть цензура
    Видео:
    • AVC 10bit, 1280 * 720, 2 477 кбит/с
    Аудио:
    • Японская | AC-3, 2 канала, 192 кбит/с - оригинальная, в контейнере - music version
    • Японская | AC-3, 2 канала, 192 кбит/с - оригинальная, в контейнере - non-music version
    Субтитры:
    • Английские - внешними файлами - [SubDESU-H]
    • Русские - внешними файлами - [LeDi-MaHo Team] - MantisFL, Holydarkness


Скриншоты:
pic pic pic pic pic pic pic pic pic pic pic pic pic pic pic pic pic pic pic pic
Параметры видео | аудио:
General
Unique ID : 244954237304615671618922790375295565474 (0xB84878560BA3B1A8BD2DA7DC2D6C3EA2)
Complete name : /Users/batyrmastyr/Downloads/torrent/[HQR] Tropical Kiss OVA [DVDRip 1280x720 h264 ac3]/[HQR] Tropical Kiss OVA -01- (DVDRip 1280x720 h264 ac3).mkv
Format : Matroska
File size : 617 MiB
Duration : 29mn 33s
Overall bit rate : 2 919 Kbps
Movie name : [HQR] Tropical Kiss OVA [DVDRip 1280x720 h264 ac3]
Encoded date : UTC 2013-07-30 17:36:09
Writing application : mkvmerge v6.2.0 ('Promised Land') built on Apr 28 2013 12:22:01
Writing library : libebml v1.3.0 + libmatroska v1.4.0

Video
ID : 1
Format : AVC
Format/Info : Advanced Video Codec
Format profile : High 10@L4.1
Format settings, CABAC : Yes
Format settings, ReFrames : 8 frames
Codec ID : V_MPEG4/ISO/AVC
Duration : 29mn 33s
Bit rate : 2 477 Kbps
Width : 1 280 pixels
Height : 720 pixels
Display aspect ratio : 16:9
Frame rate : 23.976 fps
Color space : YUV
Chroma subsampling : 4:2:0
Bit depth : 10 bits
Scan type : Progressive
Bits/(Pixel*Frame) : 0.112
Stream size : 524 MiB (85%)
Title : 01. Hanabi chapter
Writing library : x264 core 135 r2345kMod f0c1c53
Encoding settings : cabac=1 / ref=8 / deblock=1:-2:-2 / analyse=0x3:0x133 / me=umh / subme=9 / psy=1 / fade_compensate=0.00 / psy_rd=0.95:0.00 / mixed_ref=1 / me_range=24 / chroma_me=1 / trellis=2 / 8x8dct=1 / cqm=0 / deadzone=21,11 / fast_pskip=1 / chroma_qp_offset=-2 / threads=4 / lookahead_threads=1 / sliced_threads=0 / nr=0 / decimate=0 / interlaced=0 / bluray_compat=0 / constrained_intra=0 / bframes=9 / b_pyramid=2 / b_adapt=2 / b_bias=0 / direct=3 / weightb=1 / open_gop=0 / weightp=2 / keyint=240 / keyint_min=24 / scenecut=40 / intra_refresh=0 / rc_lookahead=40 / rc=crf / mbtree=0 / crf=16.0000 / qcomp=0.75 / qpmin=0 / qpmax=38 / qpstep=4 / vbv_maxrate=40000 / vbv_bufsize=62500 / crf_max=18.0 / nal_hrd=none / ip_ratio=1.40 / pb_ratio=1.30 / aq=1:0.80
Color primaries : BT.709-5, BT.1361, IEC 61966-2-4, SMPTE RP177
Transfer characteristics : BT.709-5, BT.1361
Matrix coefficients : BT.709-5, BT.1361, IEC 61966-2-4 709, SMPTE RP177

Audio #1
ID : 2
Format : AC-3
Format/Info : Audio Coding 3
Mode extension : CM (complete main)
Codec ID : A_AC3
Duration : 29mn 33s
Bit rate mode : Constant
Bit rate : 192 Kbps
Channel(s) : 2 channels
Channel positions : Front: L R
Sampling rate : 48.0 KHz
Bit depth : 16 bits
Compression mode : Lossy
Delay relative to video : 29ms
Stream size : 40.6 MiB (7%)
Title : Original, ver.1
Language : Japanese

Audio #2
ID : 3
Format : AC-3
Format/Info : Audio Coding 3
Mode extension : CM (complete main)
Codec ID : A_AC3
Duration : 29mn 33s
Bit rate mode : Constant
Bit rate : 192 Kbps
Channel(s) : 2 channels
Channel positions : Front: L R
Sampling rate : 48.0 KHz
Bit depth : 16 bits
Compression mode : Lossy
Delay relative to video : 29ms
Stream size : 40.6 MiB (7%)
Title : Original, ver.2
Language : Japanese

batyrmastyr

post 13-Янв-2013 21:05

Quote

Maki-chan to Nau.
真希ちゃんとなう.


Тип: OVA

pic
Жанры:большие сиськи
Длительность: 2 эп. по 30 мин.
Год выхода: 24.02.2012 - 28.09.2012
Страна: Япония

Режиссёр: Matano Ryuuzou
Снято по: одноимённой эроге
Автор оригинала: Waffle
Студия: Collaboration Works

Описание:
Живёт по соседству с нашим героем, Сеичи, благовоспитанная девица по имени Маки. Помимо прочего - и умна и красива. Но ночью одной застаёт наш герой соседку за мастурбацией на лоджии, чему она несказанно рада. Немедля ему объясняет, что помыслы у неё далеко не чисты и походя предлагает парнишке не брезговать шантажом и сделать её секс-рабыней.


В энциклопедиях:   AniDB  |  World Art  |  ANN

  • Источник релиза:
    • [SubDESU-H] 1-я серия
    Качество видео:
    • DVDrip, есть цензура
    Видео:
    • AVC, 1024 * 576, 1650 кбит/с
    Аудио:
    • Японская | AAC, 2 канала, 192 кбит/с - оригинальная, в контейнере

  • Источник релиза:
    • [SubDESU-H] 2-я серия
    Качество видео:
    • DVDrip, есть цензура
    Видео:
    • AVC, 704 * 396, 1150 кбит/с
    Аудио:
    • Японская | AAC, 2 канала, 192 кбит/с - оригинальная, в контейнере

  • Субтитры:
    • Английские - отключаемые, встроенные - [SubDESU-H]
    • Русские - внешними файлами (во 2-м посте) - JP2012, Tolich
    • Русские - внешними файлами - (Архив субтитров на Kage Project)


Скриншоты:
pic pic pic pic pic pic pic pic pic pic pic pic
Параметры видео | аудио:
MediaInfo 1-я серия
General
Unique ID : 246572190726510254484293684057067541227 (0xB980139942F0B8E5A3C9FBC79384D2EB)
Complete name : /Volumes/Torrents/_hentai/Maki-chan to Nau [2012, DVDrip]/[SubDESU-H]_Maki-chan_to_Nau_-_01_[4C4D6841].mkv
Format : Matroska
File size : 406 MiB
Duration : 30mn 54s
Overall bit rate : 1 838 Kbps
Encoded date : UTC 2012-02-29 07:33:46
Writing application : mkvmerge v5.2.0 ('I can't explain') built on Dec 18 2011 18:12:03
Writing library : libebml v1.2.3 + libmatroska v1.3.0
Cover : Yes / Yes / Yes / Yes / Yes

Video
ID : 1
Format : AVC
Format/Info : Advanced Video Codec
Format profile : High@L4.1
Format settings, CABAC : Yes
Format settings, ReFrames : 14 frames
Muxing mode : Header stripping
Codec ID : V_MPEG4/ISO/AVC
Duration : 30mn 54s
Width : 1 024 pixels
Height : 576 pixels
Display aspect ratio : 16:9
Frame rate : 29.970 fps
Color space : YUV
Chroma subsampling : 4:2:0
Bit depth : 8 bits
Scan type : Progressive
Title : Maki-chan to Nau ????????? ?????? ??????
Writing library : x264 core 120 r2164+649+26 fcfb618 tMod [8-bit@all X86]
Encoding settings : cabac=1 / ref=14 / deblock=1:-2:-2 / analyse=0x3:0x133 / me=hex / subme=7 / psy=1 / fade_compensate=0.95 / psy_rd=0.90:0.25 / mixed_ref=0 / me_range=16 / chroma_me=1 / trellis=2 / 8x8dct=1 / cqm=0 / deadzone=21,11 / fast_pskip=1 / chroma_qp_offset=-4 / threads=12 / sliced_threads=0 / nr=0 / decimate=0 / interlaced=0 / bluray_compat=0 / constrained_intra=0 / fgo=0 / bframes=8 / b_pyramid=2 / b_adapt=2 / b_bias=0 / direct=3 / weightb=1 / open_gop=0 / weightp=2 / keyint=250 / keyint_min=25 / scenecut=40 / intra_refresh=0 / rc_lookahead=60 / rc=crf / mbtree=1 / crf=18.0000 / qcomp=0.60 / qpmin=0 / qpmax=69 / qpstep=4 / ip_ratio=1.40 / aq=4:0.90
Language : Japanese
Color primaries : BT.470-6 System B, BT.470-6 System G, BT.601-6 625, BT.1358 625, BT.1700 625 PAL, BT.1700 625 SECAM
Transfer characteristics : BT.709-5, BT.1361
Matrix coefficients : BT.470-6 System B, BT.470-6 System G, BT.601-6 625, BT.1358 625, BT.1700 625 PAL, BT.1700 625 SECAM, IEC 61966-2-4 601

Audio
ID : 2
Format : AAC
Format/Info : Advanced Audio Codec
Format profile : HE-AAC / LC
Codec ID : A_AAC
Duration : 30mn 54s
Channel(s) : 2 channels
Channel positions : Front: L R
Sampling rate : 96.0 KHz / 48.0 KHz
Compression mode : Lossy
Language : Japanese

Text
ID : 3
Format : ASS
Codec ID : S_TEXT/ASS
Codec ID/Info : Advanced Sub Station Alpha
Compression mode : Lossless
Title : Translated by SubDESU-H (Ingrid00)
Language : English
MediaInfo 2-я серия
General
Unique ID : 130059711301053359513230037489765468991 (0x61D896D96F8B40FFBA00CC334D424B3F)
Complete name : /Volumes/Torrents/_hentai/Maki-chan to Nau [2012, DVDrip]/[SubDESU-H] Maki-chan to Nau - 02 (704x400 x264 AAC) [B54DEAFA].mkv
Format : Matroska
File size : 293 MiB
Duration : 29mn 50s
Overall bit rate : 1 374 Kbps
Movie name : [SubDESU-H] Maki-chan to Nau - 02
Encoded date : UTC 2012-10-05 21:36:57
Writing application : mkvmerge v5.8.0 ('No Sleep / Pillow') built on Sep 3 2012 08:37:02
Writing library : libebml v1.2.2 + libmatroska v1.3.0
Cover : Yes / Yes / Yes / Yes / Yes / Yes / Yes / Yes / Yes

Video
ID : 1
Format : AVC
Format/Info : Advanced Video Codec
Format profile : Main@L3.2
Format settings, CABAC : No
Format settings, ReFrames : 5 frames
Muxing mode : Header stripping
Codec ID : V_MPEG4/ISO/AVC
Duration : 29mn 50s
Width : 704 pixels
Height : 396 pixels
Display aspect ratio : 16:9
Frame rate : 29.970 fps
Color space : YUV
Chroma subsampling : 4:2:0
Bit depth : 8 bits
Scan type : Progressive
Writing library : x264 core 123 r2184+681M 5d72658
Encoding settings : cabac=0 / ref=5 / deblock=1:-2:-2 / analyse=0:0x111 / me=umh / subme=5 / psy=1 / fade_compensate=0.00 / psy_rd=1.00:0.00 / mixed_ref=0 / me_range=32 / chroma_me=1 / trellis=1 / 8x8dct=0 / cqm=0 / deadzone=21,11 / fast_pskip=1 / chroma_qp_offset=0 / threads=1 / sliced_threads=0 / nr=0 / decimate=1 / interlaced=0 / bluray_compat=0 / constrained_intra=0 / fgo=0 / bframes=3 / b_pyramid=2 / b_adapt=2 / b_bias=0 / direct=3 / weightb=0 / open_gop=0 / weightp=2 / keyint=250 / keyint_min=25 / scenecut=40 / intra_refresh=0 / rc=crf / mbtree=0 / crf=16.0000 / qcomp=0.60 / qpmin=0 / qpmax=69 / qpstep=4 / ip_ratio=1.40 / pb_ratio=1.30 / aq=1:1.00

Audio
ID : 2
Format : AAC
Format/Info : Advanced Audio Codec
Format profile : LC
Codec ID : A_AAC
Duration : 29mn 50s
Channel(s) : 2 channels
Channel positions : Front: L R
Sampling rate : 48.0 KHz
Compression mode : Lossy
Language : Japanese

Text
ID : 3
Format : ASS
Codec ID : S_TEXT/ASS
Codec ID/Info : Advanced Sub Station Alpha
Compression mode : Lossless

batyrmastyr

post 11-Сен-2012 23:44

Quote

My Imouto: Koakuma na A Cup
У моей сестренки ну очень скромные сиськи
My妹~小悪魔なAカップ~


Тип: OVA

pic
Жанры: хентай, эротика, инцест
Длительность: 2 эп. по 15 мин.
Год выхода: 2012
Страна: Япония

Снято по: ранобэ
Автор оригинала: Hikaru Wakatsuki
Студия: Lyrics

Описание:
Молодая семья с маленькой дочуркой приютила у себя паренька. Шли годы, девчонка и её новоиспечённый брат подросли. И тут она стала понимать, что чувства которые она испытывает к брату, не просто любовь сестры к старшему брату, а нечто большее... (c) Altair119


В энциклопедиях:   AniDB  |  ANN  |  World Art

  • Источник релиза:
    • SubDESU-H
    Качество видео:
    • DVDrip, есть цензура
    Видео:
    • AVC, 704*392, 2150 кбит/с
    Аудио:
    • Японская | AAC, 2 канала, 200 кбит/с - оригинальная, в контейнере
    Субтитры:
    • Английские - отключаемые, встроенные - SubDESU-H
    • Русские - внешними файлами - Svoychuvak
    • Русские - внешними файлами - (Архив субтитров на Kage)


Скриншоты:
pic pic pic pic pic pic pic pic
Параметры видео | аудио:
Format : Matroska
File size : 255 MiB
Duration : 15mn 9s
Overall bit rate : 2 353 Kbps
Movie name : [SubDESU-H]_My_Imouto_Koakuma_na_A_Cup_01v2
Encoded date : UTC 2012-07-12 03:01:46
Writing application : mkvmerge v5.6.0 ('Kenya Kane') built on May 28 2012 06:47:39
Writing library : libebml v1.2.2 + libmatroska v1.3.0
Cover : Yes / Yes / Yes / Yes / Yes / Yes / Yes / Yes / Yes / Yes / Yes

Video
ID : 1
Format : AVC
Format/Info : Advanced Video Codec
Format profile : High@L3.1
Format settings, CABAC : Yes
Format settings, ReFrames : 15 frames
Muxing mode : Header stripping
Codec ID : V_MPEG4/ISO/AVC
Duration : 15mn 9s
Width : 704 pixels
Height : 392 pixels
Display aspect ratio : 16:9
Frame rate : 23.976 fps
Color space : YUV
Chroma subsampling : 4:2:0
Bit depth : 8 bits
Scan type : Progressive
Writing library : x264 core 120 r2164 da19765
Encoding settings : cabac=1 / ref=16 / deblock=1:0:0 / analyse=0x3:0x133 / me=umh / subme=11 / psy=1 / psy_rd=0.40:0.00 / mixed_ref=1 / me_range=38 / chroma_me=1 / trellis=2 / 8x8dct=1 / cqm=0 / deadzone=21,11 / fast_pskip=0 / chroma_qp_offset=-2 / threads=12 / sliced_threads=0 / nr=0 / decimate=1 / interlaced=0 / bluray_compat=0 / constrained_intra=0 / bframes=16 / b_pyramid=1 / b_adapt=2 / b_bias=0 / direct=3 / weightb=1 / open_gop=0 / weightp=2 / keyint=240 / keyint_min=23 / scenecut=40 / intra_refresh=0 / rc_lookahead=48 / rc=crf / mbtree=1 / crf=11.0 / qcomp=0.60 / qpmin=0 / qpmax=69 / qpstep=4 / ip_ratio=1.40 / aq=1:1.00
Language : English

Audio
ID : 2
Format : AAC
Format/Info : Advanced Audio Codec
Format profile : LC
Codec ID : A_AAC
Duration : 15mn 9s
Channel(s) : 2 channels
Channel positions : Front: L R
Sampling rate : 48.0 KHz
Compression mode : Lossy
Language : Japanese

Text
ID : 3
Format : ASS
Codec ID : S_TEXT/ASS
Codec ID/Info : Advanced Sub Station Alpha
Compression mode : Lossless

NINJA_MASTER

post 04-Июл-2012 15:54

Quote

Они-Тэнсэй - Дьявольская коллекция / Oni Tensei: Demon's Collection/Oni Tensei
pic
Год выпуска: 2000
Страна: Япония
Жанр: Demons, Fantasy, Rape, Anal, Violence, Yuri, Futanari
Тип: Ova
Продолжительность: 4 эпизода по ~25 минут
Время: 01:41:03
Язык: Русский
Перевод: Любительский (одноголосый)
Цензура: Отсутствует
Режиссер: Nobuhiro Kondo/Кондо Нобухиро
Студия: Green Bunny, AIC, Studio Gazelle, Kitty Media
В ролях: Anime персонажи.
Описание: Детектив Рейко Куре расследует странную массовую резню. Тринадцать членов мафиозной группировки были растерзаны, а на месте преступления была найдена только девочка Эмма Нозоми с огромной татуировкой на спине. В течение расследования выясняется, что каждый мужчина, который пытался заняться сексом с Эммой, был зверски убит, а каждая женщина беспощадно изнасилована. Пройдя с ней все испытания, разгадав ее тайну и приняв Эмму такуой, какая она есть, Рейко влюбляется в нее и берет ее под свою опеку.
Mediainfo
General
Complete name : E:\TORENT\Они Тенсей\Они Тенсей - дьявольская татуировка.avi
Format : AVI
Format/Info : Audio Video Interleave
File size : 824 MiB
Duration : 1h 41mn
Overall bit rate : 1 140 Kbps
Video
ID : 0
Format : MPEG-4 Visual
Format settings, BVOP : 1
Format settings, QPel : No
Format settings, GMC : No warppoints
Format settings, Matrix : Default (H.263)
Muxing mode : Packed bitstream
Codec ID : DX50
Codec ID/Hint : DivX 5
Duration : 1h 41mn
Bit rate : 998 Kbps
Width : 640 pixels
Height : 480 pixels
Display aspect ratio : 4:3
Frame rate : 29.970 fps
Color space : YUV
Chroma subsampling : 4:2:0
Bit depth : 8 bits
Scan type : Progressive
Compression mode : Lossy
Bits/(Pixel*Frame) : 0.108
Stream size : 721 MiB (88%)
Title : Video
Writing library : DivX 5.2.1 Alpha (UTC 2004-09-08)
Audio
ID : 1
Format : MPEG Audio
Format version : Version 1
Format profile : Layer 3
Mode : Joint stereo
Mode extension : MS Stereo
Codec ID : 55
Codec ID/Hint : MP3
Duration : 1h 41mn
Bit rate mode : Variable
Bit rate : 128 Kbps
Channel(s) : 2 channels
Sampling rate : 44.1 KHz
Compression mode : Lossy
Stream size : 93.1 MiB (11%)
Alignment : Aligned on interleaves
Interleave, duration : 26 ms (0.78 video frame)
Interleave, preload duration : 475 ms
Title : Audio

Качество: DVDRip
Формат: AVI
Видео кодек: DivX
Аудио кодек: MP3
Видео: DivX 5 640x480 29,97fps 997Kbps
Аудио: MPEG Audio Layer 3 44100Hz stereo 128Kbps
Скриншоты
pic

batyrmastyr

post 17-Янв-2012 22:05

Quote

pic
Nee, Chanto Shiyou yo!
姉[ねえ], ちゃんとしようよっ!

Тип: OVA
Длительность: 5 эп. по 26-29 мин.
Год выхода: 25.11.2005 - 27.07.2007
Страна: Япония

Режиссёр: Kanazawa Katsuma
Снято по: хентайной игре
Автор оригинала: Candy Soft
Студия: Studio 9 Maiami

Описание:
Меня зовут Hiiragi Kuya. Фактически, я имею 6 старших сестер. Самая старшая сестра Hinano Сан, хотя она выглядит весьма молодой. Она волнуется об том, что если с ней ведут себя как с ребенком, то она будет очень сердитой. Вторая сестра - Kaname Onee-sama. Она - популярный адвокат и известная как "Ледяной законодатель". Фактически, она - моя первая любовь. Третья - Serori Ne-Ne. Она - наполовину японец и наполовину северного европейца. Она имеет наиболее чувственное и соблазнительное тело от всех сестр, но но она слишком держит себя как ребенок. Четвертая - неон Tomoe.
Четвертое - Tomoe Ne. Хотя она выглядит весьма строгой, она фактически весьма нежна и дразнимая другими сестрами. Пятая - Takane Aneki. Она своевольна, и держится со мной как со слугой. Она часто бьет меня. Самая младшая сестра - Umi Oneechan. Она заботится обо мне очень, и посвящает большую любовь мне. Когда я был ребенком, я был принят семьей Hiiragi. Но потому что отец боялся, что сестры испортят меня, меня отослали к родственнику чтоб тренировать себя самостоятельно.
Это - первый раз, когда я вернулся домой с тех пор. Я был слишком взволнован увидеть их снова, особенно Kaname, мою первую любовь. Они приветствовали меня, но поздно вечером, Kaname Onee-sama изнасиловала меня, держась со мной как с игрушкой. Разве так можно! Я чувствовал себя очень виноватым, и я решил, усовершенствовать мою сексуальную технику чтоб заставить ее стыдится ... конечно, с помощью других сестер.


В энциклопедиях:   AniDB  |  World Art  |  ANN

  • Источник релиза:
    • [A-h-E]
    Качество видео:
    • DVDrip, есть цензура
    Видео:
    • AVC, 960*720, 2100 кбит/с
    Аудио:
    • Японская | AAC, 2 канала, 275 кбит/с - оригинальная, в контейнере
    Субтитры:
    • Английские - отключаемые, встроенные - HEroAP
    • Русские - внешними файлами - [PornoLab.Net] - Kрыса, VenZell


Скриншоты:
pic pic pic pic pic pic pic pic pic pic
Параметры видео | аудио:
Формат : Matroska
Версия формата : Version 2
Размер файла : 463 Мбайт
Продолжительность : 27 м.
Общий поток : 2329 Кбит/сек
Дата кодирования : UTC 2010-12-06 09:30:37
Программа кодирования : mkvmerge v4.3.0 ('Escape from the Island') built on Sep 5 2010 10:30:51
Библиотека кодирования : libebml v1.0.0 + libmatroska v1.0.0
Attachment : Yes

Видео
Идентификатор : 1
Формат : AVC
Формат/Информация : Advanced Video Codec
Профиль формата : High@L4.0
Параметр CABAC формата : Да
Параметр ReFrames формата : 12 кадров
Режим смешивания : Header stripping
Идентификатор кодека : V_MPEG4/ISO/AVC
Продолжительность : 27 м.
Ширина : 960 пикселей
Высота : 720 пикселей
Соотношение сторон : 4:3
Частота кадров : 23,976 кадра/сек
Цветовое пространство : YUV
Субдискретизация насыщенности : 4:2:0
Битовая глубина : 8 бит
Тип развёртки : Прогрессивная
Заголовок : A-h-E, Filtered version
Библиотека кодирования : x264 core 98 r1649 20cbe10
Настройки программы : cabac=1 / ref=12 / deblock=1:0:0 / analyse=0x3:0x133 / me=tesa / subme=10 / psy=1 / psy_rd=1.00:0.00 / mixed_ref=1 / me_range=64 / chroma_me=1 / trellis=2 / 8x8dct=1 / cqm=0 / deadzone=21,11 / fast_pskip=0 / chroma_qp_offset=-2 / threads=4 / sliced_threads=0 / nr=0 / decimate=1 / interlaced=0 / constrained_intra=0 / bframes=16 / b_pyramid=2 / b_adapt=2 / b_bias=0 / direct=3 / weightb=1 / weightp=2 / keyint=350 / keyint_min=30 / scenecut=40 / intra_refresh=0 / rc_lookahead=100 / rc=crf / mbtree=1 / crf=14.0 / qcomp=0.80 / qpmin=10 / qpmax=51 / qpstep=4 / ip_ratio=1.40 / aq=1:0.50
Язык : English
Default : Да
Forced : Нет

Аудио
Идентификатор : 2
Формат : AAC
Формат/Информация : Advanced Audio Codec
Профиль формата : LC
Идентификатор кодека : A_AAC
Продолжительность : 27 м.
Каналы : 2 канала
Расположение каналов : Front: L R
Частота : 48,0 КГц
Метод сжатия : С потерями
Заголовок : Japanese 2ch AAC
Язык : Japanese
Default : Да
Forced : Нет

Текст
Идентификатор : 3
Формат : ASS
Идентификатор кодека : S_TEXT/ASS
Идентификатор кодека/Информация : Advanced Sub Station Alpha
Метод сжатия : Без потерь
Заголовок : English subtitles, credit to HEroAP
Язык : English
Default : Да
Forced : Нет

Nexuss

post 24-Фев-2011 21:01

Quote

Megachu! The Animation
Oh My Sex Goddess
Моя Секс Богиня
めがちゅ! The Animation
pic
Жанры: 18 Restricted, Angels, Erotic Game, Nudity, Romance, Sex
Длительность: 3 эп., ~35 мин.
Производство: Япония
Время выхода: c 25.07.2007 по 25.01.2008

Режиссер: Ёситэн
Снято по: эроге Megachu!
Студия: Milky

Описание:
* Based on an adult game by Front Wing.

Kousuke is an everyday nice-guy college kid who suffers from a reoccurring nightmare where he's a rampaging sex demon. He just can't figure out why that is, as he sits down to play his favorite video games like Magical Girl Lape-chan. One day a beautiful Goddess named Jordh appears before him, not to grant wishes, but to destroy him! It seems Kousuke has the power of an evil demon sleeping inside of him. Luckily, Jordh decides on an alternate means of stopping the demon, which involves lots of sex with her and sexy older sister (and love potion maker) Fauna. Unluckily, there's Kuroto, a little devil with plans of her own for Kousuke.


В энциклопедияхWorld Art  |  AniDB

Качество: DVDrip
Видео: H264|AVC, 720×480 (анаморфное 640×480), 1068 Кбит|с
Аудио: Японский | AC3, стерео, 192 Кбит|с

Наличие хардсаба: нет
Наличие цензуры: нет (убрана)
Перевод: ансаб

Источник релиза: [Senti]


Скриншоты
pic pic pic
pic pic pic
pic pic pic
pic pic pic
pic pic pic
pic pic pic
pic pic pic
Параметры видео | аудио
Общее
Уникальный идентификатор : 189561862019501528283355776317782325015 (0x8E9C496116DFC93090C6F57113757717)
Полное имя : E:\Megachu\[Senti] Megachu - 01 [369891B5].mkv
Формат : Matroska
Размер файла : 304 Мбайт
Продолжительность : 33 м.
Общий поток : 1286 Кбит/сек
Дата кодирования : UTC 2011-02-09 09:47:59
Программа кодирования : mkvmerge v4.5.0 ('Speed of Light') built on Feb 1 2011 02:10:32
Библиотека кодирования : libebml v1.2.0 + libmatroska v1.1.0

Видео
Идентификатор : 1
Формат : AVC
Формат/Информация : Advanced Video Codec
Профиль формата : High@L4.0
Параметр CABAC формата : Да
Параметр ReFrames формата : 16 кадры
Параметры GOP формата : M=1, N=2
Режим смешивания : Header stripping
Идентификатор кодека : V_MPEG4/ISO/AVC
Продолжительность : 33 м.
Битрейт : 1068 Кбит/сек
Ширина : 720 пикс.
Высота : 480 пикс.
Соотношение сторон : 4:3
Частота кадров : 23,976 кадр/сек
Стандарт вещания : NTSC
Цветовое пространство : YUV
Подвыборка цветности : 4:2:0
Битовая глубина : 8 бит
Тип развёртки : Прогрессивная
Бит/(Пиксели*Кадры) : 0.129
Размер потока : 252 Мбайт (83%)
Библиотека кодирования : x264 core 114 r1900 60ef1f8
Настройки программы : cabac=1 / ref=16 / deblock=1:0:0 / analyse=0x3:0x133 / me=tesa / subme=10 / psy=1 / psy_rd=0.40:0.00 / mixed_ref=1 / me_range=24 / chroma_me=1 / trellis=2 / 8x8dct=1 / cqm=0 / deadzone=21,11 / fast_pskip=0 / chroma_qp_offset=-2 / threads=12 / sliced_threads=0 / nr=0 / decimate=1 / interlaced=0 / constrained_intra=0 / bframes=16 / b_pyramid=2 / b_adapt=2 / b_bias=0 / direct=1 / weightb=1 / open_gop=0 / weightp=2 / keyint=250 / keyint_min=23 / scenecut=40 / intra_refresh=0 / rc_lookahead=60 / rc=crf / mbtree=1 / crf=13.0 / qcomp=0.60 / qpmin=0 / qpmax=69 / qpstep=4 / ip_ratio=1.40 / aq=1:0.60

Аудио
Идентификатор : 2
Формат : AC-3
Формат/Информация : Audio Coding 3
Расширение режима : CM (complete main)
Режим смешивания : Header stripping
Идентификатор кодека : A_AC3
Продолжительность : 33 м.
Вид битрейта : Постоянный
Битрейт : 192 Кбит/сек
Канал(ы) : 2 канала(ов)
Расположение каналов : Front: L R
Частота : 48,0 КГц
Битовая глубина : 16 бит
Метод сжатия : С потерями
Размер потока : 45,4 Мбайт (15%)
Язык : Japanese

Текст
Идентификатор : 3
Формат : UTF-8
Идентификатор кодека : S_TEXT/UTF8
Идентификатор кодека/Информация : UTF-8 Plain Text
Язык : English

aalleex

post 09-Фев-2011 22:19

Quote

pic
Lunatic Night / Безумная ночь

Производство: Япония
Тип: OAV (3 эп.), по 24 мин.
Жанр: хентай, фэнтези, комедия, мистика
Выпуск: c 21.09.1996 по 26.09.1997
Режиссер: Когурэ Тэруо
Описание аниме: После падения Атлантис молодой наследник королевства сталкивается с пугающей задачей -- он должен посеять свое семя во всем мире и восстановить королевство в его былой славе. К счастью, три мегеры помогают ему в его благородных попытках.
Наличие хардсаба: нет
Наличие цензуры: Нет
Перевод: английские дубляж и встроенные (отключаемые) субтитры для первых двух серий, внешние (SRT) немецкие субтитры для третьей серии
Русские субтитры: есть для всех трёх серий; SRT
серии 1-2
Качество: DVDRip
Формат: OGM

Video: 640x480 4:3 23.976 fps XviD (1486(ep.1) 1206(ep. 2) kBit/s)
Audio 1: english 2.0 Stereo MP3 CBR (128 kBit/s)
Audio 2: japanese 2.0 Stereo MP3 CBR (128 kBit/s)

серия 3
Качество: DVDRip
Формат: AVI

Video: DivX 5 640x480 25.00fps 949Kbps [Video 0]
Audio: MPEG Audio Layer 3 48000Hz stereo 128Kbps [Audio 1]
Скриншоты


picpicpicpicpicpicpicpicpicpicpicpic

Dancon

post 20-Янв-2011 11:11

Quote

Mission of Darkness / Injuu Daikessen
Миссия тьмы

pic
Жанр: Гуро, Тентакли, Пришельцы, Комедия.

Продолжительность: 00:42:52
Перевод: Одноголосный
Наличие Хардсабов: Нет
Год выпуска: 1997

Описание: В этом фильме поровну ужаса и веселья. Инопланетное существо приземляется на Землю и немедленно начинает оплодотворять каждую женщину, попавшую под его щупальца. Власти вычисляют, что тварь привлекают женские гормоны, и тогда они скупают всех проституток города, чтобы выманить чудовище. Но все попытки проваливаются. Военные, охраняющие девиц, не выдерживают такого соседства, и предполагаемое поле боя превращается в поле оргии. Исправить положение может только зелёновласая красотка из бригады "межгалактический патруль". Она-то и высосет все соки из чудища.

Наличие цензуры: Нет
Качество видео: DVDRip
Размер кадра: 720x480
Битрейт: ~922 кб/с

Личная оценка: 9 - торкнуло
Скриншоты
pic

pic

pic

pic

pic

pic

pic

pic

pic

Sayto

post 07-Янв-2011 23:11

Quote

Очередной выпуск Хентай-пака. Предыдущие выпуски.
Hitou Meguri Kakure Yu
Hitou Meguri Kakure Yu
pic
Main Title Hitou Meguri Kakure Yu (a7678)
Official Title 秘湯めぐり 隠れ湯
Type OVA, 2 episodes
Year 03.12.2010 till 25.02.2011
Categories 18 Restricted, Erotic Game, Nudity, Sex
Скриншоты
pic
pic
pic
pic
Aisai Nikki
Aisai Nikki
pic
Main Title Aisai Nikki (a7988)
Official Title 愛妻日記
Type OVA, unknown number of episodes
Year 22.12.2010 till ?
Categories 18 Restricted, Erotic Game, Nudity, Sex
Скриншоты
pic
pic
pic

Dancon

post 06-Янв-2011 14:37

Quote

Mahou Shoujo Ai San - The Anime


pic
Жанр: хентай, фэнтези, приключения, школа

Описание: Остальное излишне. Так как снова волшебница борется со злом, снова сопротивляется для вида(от силы минуту), после чего благополучно отдаётся на потеху щупальцам и снова в ущерб анатомии. Волшебниц теперь две, но сути это не меняет.
Как ни странно, но присутствует даже обыкновенный секс парень+девушка.


Год: 2009
Количество серий: 3
Язык: Японский
Перевод: Английский хардсаб
Наличие цензуры: Есть
Качество видео: DVDRip
Размер кадра: 704x480
Личная оценка: 7 - очень даже ничего,но цензура Embarassed
Скриншоты
pic

pic

pic

pic

pic

pic

pic

pic

pic

pic

pic

pic

kotta

post 03-Янв-2011 23:02

Quote

Kyouhaku 2 the Animation: Kizu ni Saku Hana Senketsu no Kurenai
Новый Шантаж 2

pic
Тип: OAV (2 эп.), 30 мин
Режиссёр: Араки Хидэки

Описание: Akehime Saki has a beautiful girl who has an English mother. She has a secret. She is going out with her teacher, Tsuge Akito, and holding such an immoral secret makes her exited. However there is a figure looking at their acts.
One day, Saki receives a phone.
“Do not meet the man again, or else…”
Although she is suspicious about the phone, she goes out with Akito not knowing there is a trap full of shame is waiting for her…

Адаптация хентайной игры компании Ail.


Наличие цензуры: Есть
Качество видео: TVRip
Размер кадра: 704*396
Битрейт: 1 192 кб/с

Личная оценка: 8 - мне понравилось
Скриншоты
pic
pic
pic
pic

Sayto

post 02-Дек-2010 13:30

Quote

Очередной выпуск Хентай-пака. Предыдущие выпуски.
Akina to Onsen de H Shiyo!
pic
Main Title Akina to Onsen de H Shiyo!
Official Title 明菜と温泉でHしよっ
Type OVA, unknown number of episodes
Year 17.11.2010 till ?
Categories 18 Restricted, Nudity, Sex
Скриншоты
pic
pic
pic
pic
Kanojo ga Mimai ni Konai Wake
pic
Main Title Kanojo ga Mimai ni Konai Wake
Official Title 彼女が見舞いに来ない理由
Type OVA, unknown number of episodes
Year 19.11.2010 till ?
Categories 18 Restricted, Erotic Game, Nudity, Sex
Скриншоты
pic
pic
pic
pic
Kyouiku Shidou The Animation
pic
Main Title Kyouiku Shidou The Animation
Official Title 教育指導 The Animation
Type OVA, unknown number of episodes
Year 19.11.2010 till ?
Categories 18 Restricted, Erotic Game, Female Students, Nudity, Sex
Скриншоты
pic
pic
pic
pic
Anejiru 2 The Animation: Shirakawa San Shimai ni Omakase
pic
Main Title Anejiru 2 The Animation: Shirakawa San Shimai ni Omakase
Official Title 姉汁2 THE ANIMATION~白川三姉妹におまかせ~
Type OVA, unknown number of episodes
Year 26.11.2010 till ?
Categories 18 Restricted, Erotic Game, Futanari, Large Breasts, Nudity, Sex
Скриншоты
pic
pic
pic
pic
HHH Triple Ecchi
pic
Main Title HHH Triple Ecchi
Official Title HHH トリプルエッチ
Type OVA, unknown number of episodes
Year 26.11.2010 till ?
Categories 18 Restricted, Large Breasts, Manga, Nudity, Sex
Скриншоты
pic
pic
pic
pic
Miyazaki Maya Daizukan
pic
Main Title Miyazaki Maya Daizukan
Official Title 宮崎摩耶大図鑑
Type OVA, unknown number of episodes
Year 19.11.2010 till ?
Categories 18 Restricted, Manga, Nudity, Sex
Скриншоты
pic
pic
pic
pic
pic

FAQ

post 17-Ноя-2010 21:37

Quote

pic
Stringendo: Angel-tachi no Private Lesson
Стрингендо: Частные уроки ангелов
My Blow Jober
Тип: OAV (>9 эп.), 30 мин.
Жанрs: хентай
Год выпуска: 2006
Страна: Япония


Режиссер: Араки Хидэки
Автор оригинала: Сэто Юки
Студия: Pink Pineapple

Описание: Несмотря на то, что графика в сериале выше всяких похвал, изображение органов размножения гипертрофированно не меньше, чем нереальный объем эякулята, которыми истекают герои сериала каждые пять минут. Сериал вызывает двойственные чувства. Казалось бы, сюжета практически нет, размеру членов молодых людей может позавидовать уже вышеупомянутый мной мул, но благодаря великолепным красоткам и их коварству, бросать просмотр желание не возникает. Тем более, сериал от любимой мной студии - Pink Pineapple. Главное, не подходите к происходящему слишком серьезно и вам… понравится.

В энциклопедиях:  World Art 

Качество: DVDRip
Видео: 704x396 (16:9) , 1072Kbps Кбит/сек, 29.970 кадр/сек
Аудио: Японский, 192 Кбит/сек, 48 КГц, stereo[MPEG Audio]

Наличие хардсаба: нет
Наличие цензуры: да
Перевод: да
Личная оценка: хентай нельзя судить =Р



Обложка+Скринлист
1эпизод
Обложка
pic
Скринлист
pic
2эпизод
Обложка
pic
Скринлист
pic
3эпизод
Обложка
pic
Скринлист
pic
4эпизод
Обложка
pic
Скринлист
pic
5эпизод
Обложка
pic
Скринлист
pic
6эпизод
Обложка
pic
Скринлист
pic
7эпизод
Обложка
pic
Скринлист
NEW UP : эпизод 7


SnakeMFK

post 15-Ноя-2010 20:57

Quote

Princess Lover! OVA

pic
Жанр: хентай
Тип: OAV (2 эп.), 30 мин.
Время выхода: c 17.09.2010 по 22.10.2010

Качество видео: DVDRip
Источник: PerfectDark, Sign - noname
Наличие Цензуры: Да

Наличие Хардсабов: Нет
Перевод: Субтитры

Описание: * Based on the game by Ricotta.

Amongst the cast is Sylvia van Hossen, a proud young woman of noble lineage. She has been raised to serve her kingdom and its people. This is her story.

~ translated and adapted from official site by Cranston


Доп. инфо: World-Art, AniDB
MediaInfo
General
Complete name : 【18禁アニメ】[DVD] OVA プリンセスラバー! 第01話 「上巻 キミといっしょの朝」 (1280x720 H.264 AAC).mp4
Format : MPEG-4
Format profile : Base Media
Codec ID : isom
File size : 441 MiB
Duration : 28mn 51s
Overall bit rate : 2 138 Kbps
Encoded date : UTC 2010-10-31 05:13:17
Tagged date : UTC 2010-10-31 06:27:48
Writing application : Yamb 2.1.0.0 [http://yamb.unite-video.com]
Comment : 下巻は近いうちに。

Video
ID : 1
Format : AVC
Format/Info : Advanced Video Codec
Format profile : High@L4.1
Format settings, CABAC : Yes
Format settings, ReFrames : 4 frames
Codec ID : avc1
Codec ID/Info : Advanced Video Coding
Duration : 28mn 51s
Bit rate mode : Variable
Bit rate : 1 735 Kbps
Maximum bit rate : 40.0 Mbps
Width : 1 280 pixels
Height : 720 pixels
Display aspect ratio : 16:9
Frame rate mode : Variable
Frame rate : 25.909 fps
Original frame rate : 23.976 fps
Minimum frame rate : 23.971 fps
Maximum frame rate : 59.940 fps
Color space : YUV
Chroma subsampling : 4:2:0
Bit depth : 8 bits
Scan type : Progressive
Bits/(Pixel*Frame) : 0.073
Stream size : 358 MiB (81%)
Writing library : x264 core 107 r1745+304 d69eaa0
Encoded date : UTC 2010-10-31 05:09:40
Tagged date : UTC 2010-10-31 05:13:26
Color primaries : BT.709-5, BT.1361, IEC 61966-2-4, SMPTE RP177
Transfer characteristics : BT.709-5, BT.1361
Matrix coefficients : BT.709-5, BT.1361, IEC 61966-2-4 709, SMPTE RP177

Audio
ID : 2
Format : AAC
Format/Info : Advanced Audio Codec
Format version : Version 4
Format profile : LC
Format settings, SBR : No
Codec ID : 40
Duration : 28mn 51s
Bit rate mode : Variable
Bit rate : 384 Kbps
Maximum bit rate : 472 Kbps
Channel(s) : 2 channels
Channel positions : Front: L R
Sampling rate : 48.0 KHz
Stream size : 80.8 MiB (18%)
Encoded date : UTC 2010-10-31 05:13:25
Tagged date : UTC 2010-10-31 05:13:26
Скриншоты
pic
pic
pic

Sayto

post 02-Ноя-2010 10:46

Quote

Очередной выпуск Хентай-пака. Предыдущие выпуски.
Bust to Bust
pic
Main Title Bust to Bust (a7923)
Official Title BUST TO BUST -ちちはちちに-
Type OVA, unknown number of episodes
Year 15.10.2010 till ?
Categories18 Restricted, Female Students, Large Breasts, Manga, Nudity, Sex
Скриншоты
pic
pic
pic
Kateikyoushi no Onee-san 2 The Animation: H no Hensachi Agechaimasu
pic
Main Title Kateikyoushi no Onee-san 2 The Animation: H no Hensachi Agechaimasu (a7849)
Official Title 家庭教師のおねえさん2 THE ANIMATION~Hの偏差値あげちゃいます~
Type OVA, unknown number of episodes
Year 22.10.2010 till ?
Categories18 Restricted, Large Breasts, Nudity, Sex
Скриншоты
pic
pic
pic
Elf Hime Nina
pic
Main Title Elf Hime Nina (a7970)
Official Title エルフ姫ニィーナ
Type OVA, unknown number of episodes
Year 29.10.2010 till ?
Categories 18 Restricted, Erotic Game, Nudity, Sex
Скриншоты
pic
pic
pic
Mofuku Tsuma
pic
Main Title Mofuku Tsuma (a7704)
Official Title 喪服妻
Type OVA, unknown number of episodes
Year 29.10.2010 till ?
Categories 18 Restricted, Erotic Game, Housewives, Nudity, Sex
Скриншоты
pic
pic
pic
Oni Chichi 2
pic
Main Title Oni Chichi 2 (a7850)
Official Title 鬼父2
Type OVA, 2 episodes
Year 29.10.2010 till 26.11.2010
Categories 18 Restricted, Erotic Game, Nudity, Sex
OniChichi
Скриншоты
pic
pic
pic

FAQ

post 04-Окт-2010 23:48

Quote

pic
Netorare: Tanabe Yuuka no Dokuhaku
Тип: OAV (1 эп.), 20 мин.
Жанрs: хентай
Год выпуска: 2010
Страна: Япония


Режиссер: Хаякава Наоми

Описание:Танабэ Юка была блаженной домохозяйкой. Муж любил ее, и она тоже его обожает. Она ожидала его каждый день дома кухарничала обед, на следующий день она кухарничала завтрак и целовала его перед тем как он уходил. Она вела самую обычную существование.
Все изменилось в один отменный день, когда пришел человек к ее дому, она раскрыла дверь, и человек сразу же содрал с нее одежду и трахнул ее. Она не осведомила его, но ничего не могла поделать, но получила от этого наслаждение. Она ощущала себя, как грешница, она изменила своему мужу, но с этого дня мужчина приходил к ней домой после того как муж уходил на работу и она начала отдаватся ему добровольно.
Ее муж на самом деле не знает, что происходит? Вскоре она узнает правду...


В энциклопедиях:  World Art 

Качество: DVDRip
Видео: 720x480 (853:480) 29.97fps (H264) (16:9)
Аудио: Японский, AAC 44100Hz stereo [Audio] 2 channels

Наличие хардсаба: нет
Наличие цензуры: да
Перевод: нет
Личная оценка: хентай нельзя судить =Р



Скринлист
pic
Скриншоты
pic
pic
pic


lampa

post 03-Окт-2010 16:55

Quote

Хиторига: Одинокий мотылёк / Hitoriga: The Animation

pic
Жанр : 18 Restricted, Anal, Chikan, Female Students, Lolicon, Manga, Nudity, Rape, Sex, Small Breasts, Virgins
Количество серий : 1-4

Описание: Чтобы преодолеть свой вполне основанный страх перед переполненым поездом, девушка обращается за помощью к врачу. Но терапия развивается не так, как она это себе представляла.
Наличие цензуры: Есть
Качество видео: DVDRip

Размер кадра: 704x396
Битрейт: 733 кб/с
Личная оценка: 0 - не смотрел
Скриншоты
ep 1
pic

pic

pic

pic
ep 2
pic

pic

pic

pic
ep 3
pic
pic
pic
pic
ep 4
pic
pic
pic
pic

lampa

post 02-Окт-2010 20:16

Quote

Очередной выпуск Хентай-пака. Предыдущие выпуски.

Цитата:

Принцип прост: в начале месяца (+/-) я буду выкладывать весь хентай, стартовавший в предыдущем месяце. Новые серии старых сериалов я не трогаю, выкладываю именно первые серии стартовавших анимешек. А уж дальше вам решать, стоит ждать продолжения (если таковое будет) или нет.
Seme Chichi
Seme Chichi
pic
Type:OVA, 2 episodes

Year: 10.09.2010 till 10.12.2010

Categories:18 Restricted, Gigantic Breasts, Manga, Nudity, Sex
Скриншот
pic
Princess Lover!
Princess Lover!
pic
Type :OVA, 2 episodes

Year:17.09.2010 till 22.10.2010

Categories :18 Restricted, Dating Sim - Visual Novel, Erotic Game, Large Breasts, Nudity, Sex
Скриншот
pic
Yubisaki Annainin Shirudaku Settai Okawari Sanhaime
Yubisaki Annainin Shirudaku Settai Okawari Sanhaime
pic
Type :OVA, unknown number of episodes
Year:17.09.2010 till ?
Categories :18 Restricted, Erotic Game, Nudity, Sex
Скриншот
pic
Anime Shounen Maid Curo-kun: Tenshi no Uta
Anime Shounen Maid Curo-kun: Tenshi no Uta
pic
Type:OVA, 1 episode

Year:23.09.2010

Categories :18 Restricted, Anal, BDSM, Bondage, Dildos - Vibrators, Manga, Nudity, Sex, Shotacon, Traps, Yaoi
Скриншот
pic
Kansen 3: Shuto Houkai


Kansen 3: Shuto Houkai
pic
Type;OVA, unknown number of episodes

Year:24.09.2010 till ?

Categories:18 Restricted, Erotic Game, Nudity, Sex
Скриншот
pic
Ryoujoku Famiresu Choukyou Menu
Ryoujoku Famiresu Choukyou Menu
pic
Type:OVA, unknown number of episodes

Year:24.09.2010 till ?

Categories:18 Restricted, Erotic Game, Nudity, Sex, Waitresses
Скриншот
pic
Shoujo Senki Soul Eater
Shoujo Senki Soul Eater
pic
Type :OVA, unknown number of episodes

Year:24.09.2010 till ?

Categories:18 Restricted, Erotic Game, Nudity, Sex
Скриншот
pic
Вся информация взята из аниме-базы anidb.net и только оттуда.

Цитата:

Весь хентай, выходящий в Японии, зацензурен. Посты типа "Фи, опять цензура" будут удаляться.
В описании анимешек, есть ссылка на сайт AniDB. Среди всего прочего, там указывается наличие цензуры в том или ином рипе.
На быстрый выход анценза можете не надеяться...
Внимание!!!
Как упоминалась выше .В Хентай-паках выкладываются только первые серии выходивших аниме хентаяк за месяц , продолжение выкладывания серий
здесь не будет... Если вы хотите повысит свой рейтинг , и посмотреть новые серии хентайки, которая вам понравилась. А ещё поделится с другими няшевцами, любимой или понравившейся хентайкой.
Смело создавайте раздачи, не ждите когда добрый дядя сделает всё за вас . Узнать кода выдут серии хентаек ,
можно отсюда... http://anidb.net , или же кликнув по названию хентайки в любой версии хентай-пака.
А новые серии можно скачать ,от сюда сылки приведены ниже...
1. http://hshare.net/
2. http://tokyotosho.info/
3. http://sukebei.nyaatorrents.org/
4. http://pornolab.net/forum/viewforum.php?f=1745

FAQ

post 29-Сен-2010 22:17

Quote

pic
In Warau Kangofu The Animation
Laughing Nurse
Тип: OAV (2 эп.), 30 мин.
Жанрs: хентай
Год выпуска: 2007
Страна: Япония


Режиссер: Араки Хидэки
Автор оригинала: Ёнэкура Кэнго
Студия: Pink Pineapple

Описание: Первая история In Warau Kangofu рассказывает о шаловливой медсестре, которая любит молоденьких мальчиков. Она выбрала себе из пациентов мальчишку и частенько начала его навещать, он конечно же не против. Но, другие пациенты начали завидовать тому, что эта девушка выбрала не их, а юнца. И решили её изнасиловать. Также мальчишку навещала его подруга, и она увидела их за ласками. После, упала в обморок... а медсестра воспользовалась этим случаем, и... во общем, неплохая хентайка... цензура не очень сильная, что радует...

В энциклопедиях:  World Art 

Качество: DVDRip
Видео: 704x396, 873 Кбит/сек, 29.970 кадр/сек, [XviD]
Аудио: Японский, 192 Кбит/сек, 48 КГц, 2 каналы, Joint stereo [MPEG Audio]

Наличие хардсаба: да
Наличие цензуры: да
Перевод: нет
Личная оценка: хентай нельзя судить =Р



Скринлист
1эпизод
pic
2эпизод
pic


Sayto

post 09-Сен-2010 22:07

Quote

Kan`in Tokkyuu: Michi Shio
pic
Kan`in Tokkyuu: Michi Shio
Type: OVA, unknown number of episodes
Year: 06.08.2010 till ?
Categories: 18 Restricted, Erotic Game, Nudity, Sex
Скриншоты
pic
pic
pic
Netorare: Tanabe Yuuka no Dokuhaku
pic
Netorare: Tanabe Yuuka no Dokuhaku
Type: OVA, 1 episode
Year: 09.08.2010
Categories: 18 Restricted, Housewives, Large Breasts, Nudity, Sex
Скриншоты
pic
pic
pic
Otome Juurin Yuugi: Maiden Infringement Play
pic
Otome Juurin Yuugi: Maiden Infringement Play
Type: OVA, unknown number of episodes
Year: 27.08.2010 till ?
Categories: 18 Restricted, Erotic Game, Gangbang, Nudity, Rape, Sex, Virgins
Скриншоты
pic
pic
pic
Вся информация взята из аниме-базы anidb.net и только оттуда.
Источник: src=share ID=Unnamed

lampa

post 21-Авг-2010 17:18

Quote

Тёмная любовь / Dark Love / Kuro Ai: Hitoyozumakan Inkou Rannyuuroku

pic
Жанр: 18 Restricted, Anal, Erotic Game, Maids, Rape, Sex, Tentacles
Серии: 1-2 of 2
Озвучка: Внимание!! Озвучивает Анкорд

Описание: обрый мальчик отрастил себе тентакли с помощью волшебного эликсира... И ПОНЕСЛАСЬ!!!

Наличие цензуры: Нет
Качество видео: DVDRip
Размер кадра: 704x396
Битрейт: 1 008 кб/с

Личная оценка: 6 - третий сорт не брак всё было бы хорошо если не Анкорд
Скриншоты
ep 1
pic

pic

pic

pic
ep 2
pic

pic

pic

pic

lampa

post 21-Авг-2010 16:51

Quote

Imbalance Girl

pic
Год выпуска: 2004
Жанр: 18 Restricted, Erotic Game, Female Students, Nudity, Sex
Продолжительность: OAV (1 эпизод)

Описание: Хентай в школе, без сюжета

Наличие цензуры: Есть
Качество видео: DVDRip
Размер кадра: 640x480

Личная оценка: 0 - не смотрел
Скриншоты
pic

pic

pic

pic
 

Текущее время: 17-Дек 12:53

Часовой пояс: GMT + 3

[  Execution time: 2.212 sec  |  MySQL: 2.090 sec (94%) in 7 queries  |  Mem: 160.52 KB / 1.11 MB / 992.35 KB  |  Load: 1.6 2.4 2.6  ]