Loading...
Error

Поиск

Параметры запроса
Ключевые слова

  

Поиск по автору

 

Вы можете использовать + (знак "плюс" написанный слитно перед словом: "+слово") чтобы определить слова, которые должны быть в результатах и - (знак "минус") для слов, которых не должно быть. Используйте * в качестве шаблона для частичного совпадения.

Форум:

Мои закачки
Время размещения:

 

Показывать результаты как:

 

Упорядочить по:

 

Результатов поиска: 304

Автор Сообщение

batyrmastyr

post 06-Апр-2016 23:51

Quote

Aoki Hagane no Arpeggio: Ars Nova
Арпеджио синей стали - арс нова -
푸른 강철의 아르페지오


Тип: полнометражный фильм

pic
Жанры: боевик, приключения, романтика, сэйнэн, фантастика
Длительность: 2 эп. по 25 мин.
Время выхода: 31.01.2015 — 03.10.2015
Страна: Япония

Режиссёр: Киси Сэйдзи
Сценарист: Уэдзу Макото
Снято по: манге Aoki Hagane no Arpeggio
Автор оригинала: Ark Performance
Студия: Sanzigen

Описание:
В этом мире ледяные шапки Земли в XXI веке тоже подтаяли, но по морям-океанам особо не поплаваешь – откуда ни возьмись, явился «Флот Тумана» из разумных кораблей. Пришельцы, ведомые искусственным интеллектом, превосходящие землян технически, блокировали привычные водные и воздушные пути, в результате люди стали пленниками сухопутья. Совершенные боевые корабли Тумана, многие из которых имеют человеческую аватару, господствуют в море, но не трогают сушу. Прошло почти двадцать лет, а конца конфликту не видно. Впрочем, со временем перебежчики появились с обеих сторон, а это значит, что взаимопонимание в принципе возможно!

Японцам не привыкать к островной жизни, при этом лихих флотоводцев у них всегда хватало. Юный Гундзо Тихая – потомственный моряк, и, хотя у властей к парню много вопросов, деваться некуда – только у него есть подлодка I-401, чей аватар Иона добровольно перешла на сторону людей. А значит, у 18-летнего капитана имеется реальный шанс прорвать блокаду и доставить в Америку секретный груз, от которого зависит исход затянувшейся войны. Вот так началась тихоокеанская одиссея на ходу формируемой эскадры «Голубая Сталь». Одно непонятно: почему все аватары кораблей Тумана – исключительно симпатичные девушки?!

© Hollow, World Art


В энциклопедиях:   AniDB  |  World Art  |  Википедия

  • Качество видео:
    • BDrip
    Видео:
    • AVC, 1280 * 720, 3 794 кбит/с
    Аудио:
    • Японская | Vorbis, 2 канала, 224 кбит/с - оригинальная, в контейнере
    Субтитры:


Кому нужно 1080p - оно там.
Скриншоты:
pic pic pic pic pic pic pic pic pic pic pic pic pic pic
Параметры видео | аудио:
General
Unique ID : 130646377463489529879629990510906165082 (0x624993B96F6356DF03B3D5295069C75A)
Complete name : /Users/batyrmastyr/Desktop/_VID/Aoki Hagane no Arpeggio Ars Nova DC [2015, BDrip, 720p]/Aoki Hagane no Arpeggio Ars Nova DC (BDRip 1280x720 H.264 Vorbis).mkv
Format : Matroska
Format version : Version 4 / Version 2
File size : 3.02 GiB
Duration : 1h 45mn
Overall bit rate mode : Variable
Overall bit rate : 4 100 Kbps
Movie name : Aoki Hagane no Arpeggio Ars Nova DC
Encoded date : UTC 2016-02-28 07:51:53
Writing application : mkvmerge v8.8.0 ('Wind at my back') 64bit
Writing library : libebml v1.3.3 + libmatroska v1.4.4

Video
ID : 1
Format : AVC
Format/Info : Advanced Video Codec
Format profile : High@L4.0
Format settings, CABAC : Yes
Format settings, ReFrames : 6 frames
Codec ID : V_MPEG4/ISO/AVC
Duration : 1h 45mn
Bit rate : 3 794 Kbps
Width : 1 280 pixels
Height : 720 pixels
Display aspect ratio : 16:9
Frame rate mode : Constant
Frame rate : 23.976 fps
Color space : YUV
Chroma subsampling : 4:2:0
Bit depth : 8 bits
Scan type : Progressive
Bits/(Pixel*Frame) : 0.172
Stream size : 2.80 GiB (93%)
Writing library : x264 core 142 r2479 dd79a61
Encoding settings : cabac=1 / ref=6 / deblock=1:0:0 / analyse=0x3:0x133 / me=umh / subme=10 / psy=1 / psy_rd=1.00:0.00 / mixed_ref=1 / me_range=16 / chroma_me=1 / trellis=2 / 8x8dct=1 / cqm=0 / deadzone=21,11 / fast_pskip=1 / chroma_qp_offset=-2 / threads=12 / lookahead_threads=1 / sliced_threads=0 / nr=0 / decimate=1 / interlaced=0 / bluray_compat=0 / constrained_intra=0 / bframes=3 / b_pyramid=2 / b_adapt=2 / b_bias=0 / direct=3 / weightb=1 / open_gop=0 / weightp=1 / keyint=240 / keyint_min=24 / scenecut=40 / intra_refresh=0 / rc_lookahead=40 / rc=crf / mbtree=1 / crf=15.0 / qcomp=0.60 / qpmin=7 / qpmax=20 / qpstep=4 / ip_ratio=1.40 / aq=1:1.00
Default : Yes
Forced : No
Color primaries : BT.709
Transfer characteristics : BT.709
Matrix coefficients : BT.709
DURATION : 01:45:28.322000000
NUMBER_OF_FRAMES : 151728
NUMBER_OF_BYTES : 3076630633
_STATISTICS_WRITING_APP : mkvmerge v8.8.0 ('Wind at my back') 64bit
_STATISTICS_WRITING_DATE_UTC : 2016-02-28 07:51:53
_STATISTICS_TAGS : BPS DURATION NUMBER_OF_FRAMES NUMBER_OF_BYTES

Audio
ID : 2
Format : Vorbis
Format settings, Floor : 1
Codec ID : A_VORBIS
Duration : 1h 45mn
Bit rate mode : Variable
Bit rate : 224 Kbps
Channel(s) : 2 channels
Sampling rate : 48.0 KHz
Compression mode : Lossy
Stream size : 169 MiB (5%)
Title : Stereo
Writing library : aoTuV 20110424 (UTC 2011-04-24)
Language : Japanese
Default : Yes
Forced : No
DURATION : 01:45:28.277000000
NUMBER_OF_FRAMES : 638963
NUMBER_OF_BYTES : 164188080
_STATISTICS_WRITING_APP : mkvmerge v8.8.0 ('Wind at my back') 64bit
_STATISTICS_WRITING_DATE_UTC : 2016-02-28 07:51:53
_STATISTICS_TAGS : BPS DURATION NUMBER_OF_FRAMES NUMBER_OF_BYTES
Writing application : HandBrake
Дополнительная информация:
Арпеджио (арпеджо) – музыкальный термин, способ взятия аккорда «как на арфе», не одновременно, а последовательно, начиная с нижнего тона. Авторы использовали данный термин, чтобы подчеркнуть богатство и сложность «ритмического рисунка» манги и сериала. Ars Nova в переводе с латинского значит «новое искусство».

Представители «флота Тумана» носят имена кораблей японского Императорского флота, а также европейских флотов времен Второй мировой войны.

batyrmastyr

post 11-Фев-2016 00:10

Quote

Majokko Shimai no Yoyo to Nene
Сестры-колдуньи Йойо и Нэнэ
魔女っこ姉妹のヨヨとネネ


Тип: полнометражный фильм

pic
Жанры: девочки-волшебницы
Длительность: 1 эп. по 100 мин.
Время выхода: 28.12.2013
Страна: Япония

Режиссёр: Хирао Такаюки
Автор оригинала: Хирарин
Студия: UFO Table

Описание:
Жизнь сестер Йойо и Нэнэ полна забот. Но для наших героинь нет ничего невозможного! Даже победа над огромным монстром становится для них легкой задачей. Старшая из сестер, Нэнэ, — колдунья высшего класса, а вот магические способности малышки Йойо пока что совсем не велики. Но у зеленоволосой бестии явно великие планы на будущее.


В энциклопедиях:   AniDB  |  Википедия  |  World Art

  • Качество видео:
    • BDrip
    Видео:
    • AVC, 1280 * 560, 4 830 кбит/с
    Аудио:
    • Японская | Vorbis, 2 канала, 224 кбит/с - оригинальная, в контейнере
    Субтитры:
    • Русские - внешними файлами - [Timecraft & GMC] - DARio, Schum, Buka63, AoZaki, atom4ik


Скриншоты:
pic pic pic pic pic pic pic pic pic pic pic pic pic pic
Параметры видео | аудио:
General
Unique ID : 115588435053873412663919590050080765449 (0x56F585D827A4DDAE18791728E0883609)
Complete name : /Users/batyrmastyr/Desktop/_VID/Majokko Shimai no Yoyo to Nene [2013, BDrip, 720p]/Majokko Shimai no Yoyo to Nene (BDRip 1280x720 H.264 Vorbis).mkv
Format : Matroska
Format version : Version 4 / Version 2
File size : 3.61 GiB
Duration : 1h 40mn
Overall bit rate mode : Variable
Overall bit rate : 5 156 Kbps
Movie name : Majokko Shimai no Yoyo to Nene
Encoded date : UTC 2016-02-10 17:55:58
Writing application : mkvmerge v8.8.0 ('Wind at my back') 64bit
Writing library : libebml v1.3.3 + libmatroska v1.4.4

Video
ID : 1
Format : AVC
Format/Info : Advanced Video Codec
Format profile : High@L3.1
Format settings, CABAC : Yes
Format settings, ReFrames : 6 frames
Codec ID : V_MPEG4/ISO/AVC
Duration : 1h 40mn
Bit rate : 4 830 Kbps
Width : 1 280 pixels
Height : 560 pixels
Display aspect ratio : 2.35:1
Frame rate mode : Constant
Frame rate : 23.976 fps
Color space : YUV
Chroma subsampling : 4:2:0
Bit depth : 8 bits
Scan type : Progressive
Bits/(Pixel*Frame) : 0.281
Stream size : 3.38 GiB (94%)
Writing library : x264 core 142 r2479 dd79a61
Encoding settings : cabac=1 / ref=6 / deblock=1:0:0 / analyse=0x3:0x133 / me=umh / subme=10 / psy=1 / psy_rd=1.00:0.00 / mixed_ref=1 / me_range=16 / chroma_me=1 / trellis=2 / 8x8dct=1 / cqm=0 / deadzone=21,11 / fast_pskip=1 / chroma_qp_offset=-2 / threads=12 / lookahead_threads=1 / sliced_threads=0 / nr=0 / decimate=1 / interlaced=0 / bluray_compat=0 / constrained_intra=0 / bframes=3 / b_pyramid=2 / b_adapt=2 / b_bias=0 / direct=3 / weightb=1 / open_gop=0 / weightp=1 / keyint=240 / keyint_min=24 / scenecut=40 / intra_refresh=0 / rc_lookahead=40 / rc=crf / mbtree=1 / crf=15.0 / qcomp=0.60 / qpmin=7 / qpmax=20 / qpstep=4 / ip_ratio=1.40 / aq=1:1.00
Default : Yes
Forced : No
Color primaries : BT.709
Transfer characteristics : BT.709
Matrix coefficients : BT.709
DURATION : 01:40:20.014000000
NUMBER_OF_FRAMES : 144336
NUMBER_OF_BYTES : 3722549989
_STATISTICS_WRITING_APP : mkvmerge v8.8.0 ('Wind at my back') 64bit
_STATISTICS_WRITING_DATE_UTC : 2016-02-10 17:55:58
_STATISTICS_TAGS : BPS DURATION NUMBER_OF_FRAMES NUMBER_OF_BYTES

Audio
ID : 2
Format : Vorbis
Format settings, Floor : 1
Codec ID : A_VORBIS
Duration : 1h 40mn
Bit rate mode : Variable
Bit rate : 224 Kbps
Channel(s) : 2 channels
Sampling rate : 48.0 KHz
Compression mode : Lossy
Stream size : 161 MiB (4%)
Title : Stereo
Writing library : aoTuV 20110424 (UTC 2011-04-24)
Language : Japanese
Default : Yes
Forced : No
DURATION : 01:40:19.952000000
NUMBER_OF_FRAMES : 617512
NUMBER_OF_BYTES : 155113910
_STATISTICS_WRITING_APP : mkvmerge v8.8.0 ('Wind at my back') 64bit
_STATISTICS_WRITING_DATE_UTC : 2016-02-10 17:55:58
_STATISTICS_TAGS : BPS DURATION NUMBER_OF_FRAMES NUMBER_OF_BYTES
Writing application : HandBrake

batyrmastyr

post 22-Ноя-2015 12:05

Quote

Hana to Alice: Satsujin Jiken
Хана и Алиса: дело об убийстве
花とアリス 殺人事件


Тип: полнометражный фильм

pic
Жанры: дзёсэй, детектив
Длительность: 1 эп. по 1 час 40 мин.
Время выхода: 20.02.2015
Страна: Япония

Режиссёр: Ивай Сюндзи
Студия: Steve N` Steven

Описание:
После того как родители 14-летней Тэцуко (она же Алиса) развелись, она была вынуждена вместе с матерью переехать из столицы в провинциальный городок и перевестись в новую среднюю школу. Соседи оказались очень таинственными личностями и пристально наблюдали за переездом из окна. Да и знакомство с новыми одноклассниками оказывается не таким, как она могла себе представить — в первый же день её начинают игнорировать. Позже Алиса выясняет, что ей досталась парта ученика по имени Иуда, который, как говорят, был убит год назад, а таинственного наблюдателя проживающего напротив зовут Ханой. Но всё это неспроста. Как загадочное убийство связано с девочкой Ханой, которая живет по соседству, не ходит в школу и наблюдает за ней из окна?


В энциклопедиях:   AniDB  |  World Art  |  Википедия

  • Качество видео:
    • BDrip
    Видео:
    • AVC, 1280 * 720, 1 851 кбит/с
    Аудио:
    • Японская | Vorbis, 2 канала, 224 кбит/с - оригинальная, в контейнере
    Субтитры:
Скриншоты:
pic pic pic pic pic pic pic pic pic pic pic pic
Параметры видео | аудио:
General
Unique ID : 200439577212710655360029620865827957084 (0x96CB42252777E32DCFD7F30A279D695C)
Complete name : /Users/batyrmastyr/Desktop/_VID/Hana to Alice ~Satsujin Jiken~ [2015, BDrip, 720p]/Hana to Alice ~Satsujin Jiken~ (BDRip 1280x720 H.264 Vorbis).mkv
Format : Matroska
Format version : Version 4 / Version 2
File size : 1.46 GiB
Duration : 1h 38mn
Overall bit rate mode : Variable
Overall bit rate : 2 117 Kbps
Movie name : Hana to Alice ~Satsujin Jiken~
Encoded date : UTC 2015-11-21 17:59:32
Writing application : mkvmerge v8.5.2 ('Crosses') 64bit
Writing library : libebml v1.3.3 + libmatroska v1.4.4

Video
ID : 1
Format : AVC
Format/Info : Advanced Video Codec
Format profile : High@L4.0
Format settings, CABAC : Yes
Format settings, ReFrames : 6 frames
Codec ID : V_MPEG4/ISO/AVC
Duration : 1h 38mn
Bit rate : 1 851 Kbps
Width : 1 280 pixels
Height : 720 pixels
Display aspect ratio : 16:9
Frame rate mode : Constant
Frame rate : 23.976 fps
Color space : YUV
Chroma subsampling : 4:2:0
Bit depth : 8 bits
Scan type : Progressive
Bits/(Pixel*Frame) : 0.084
Stream size : 1.28 GiB (87%)
Writing library : x264 core 142 r2479 dd79a61
Encoding settings : cabac=1 / ref=6 / deblock=1:0:0 / analyse=0x3:0x133 / me=umh / subme=10 / psy=1 / psy_rd=1.00:0.00 / mixed_ref=1 / me_range=16 / chroma_me=1 / trellis=2 / 8x8dct=1 / cqm=0 / deadzone=21,11 / fast_pskip=1 / chroma_qp_offset=-2 / threads=12 / lookahead_threads=1 / sliced_threads=0 / nr=0 / decimate=0 / interlaced=0 / bluray_compat=0 / constrained_intra=0 / bframes=3 / b_pyramid=2 / b_adapt=2 / b_bias=0 / direct=3 / weightb=1 / open_gop=0 / weightp=1 / keyint=240 / keyint_min=24 / scenecut=40 / intra_refresh=0 / rc_lookahead=40 / rc=crf / mbtree=1 / crf=15.0 / qcomp=0.60 / qpmin=7 / qpmax=20 / qpstep=4 / ip_ratio=1.40 / aq=1:1.00
Default : Yes
Forced : No
Color primaries : BT.709
Transfer characteristics : BT.709
Matrix coefficients : BT.709
DURATION : 01:38:39.998000000
NUMBER_OF_FRAMES : 141938
NUMBER_OF_BYTES : 1422482827
_STATISTICS_WRITING_APP : mkvmerge v8.5.2 ('Crosses') 64bit
_STATISTICS_WRITING_DATE_UTC : 2015-11-21 17:59:32
_STATISTICS_TAGS : BPS DURATION NUMBER_OF_FRAMES NUMBER_OF_BYTES

Audio
ID : 2
Format : Vorbis
Format settings, Floor : 1
Codec ID : A_VORBIS
Duration : 1h 38mn
Bit rate mode : Variable
Bit rate : 224 Kbps
Channel(s) : 2 channels
Sampling rate : 48.0 KHz
Compression mode : Lossy
Stream size : 158 MiB (11%)
Title : Stereo
Writing library : aoTuV 20110424 (UTC 2011-04-24)
Language : Japanese
Default : Yes
Forced : No
DURATION : 01:38:39.952000000
NUMBER_OF_FRAMES : 507226
NUMBER_OF_BYTES : 142388081
_STATISTICS_WRITING_APP : mkvmerge v8.5.2 ('Crosses') 64bit
_STATISTICS_WRITING_DATE_UTC : 2015-11-21 17:59:32
_STATISTICS_TAGS : BPS DURATION NUMBER_OF_FRAMES NUMBER_OF_BYTES
Writing application : HandBrake
Дополнительная информация:
Предыстория игрового фильма «Хана и Алиса» 2004 года.

Nexuss

post 06-Ноя-2015 04:38

Quote

Wakusei Daikaiju Negadon
NEGADON - the Monster from Mars
Негадон - Чудовище с Марса
惑星大怪獣ネガドン


Тип: Короткометражный фильм

pic
Жанры: научная фантастика, меха, пародия, сёнэн
Длительность: 25 мин.
Время выхода: 05.11.2005
Страна: Япония

Режиссёр: Авадзу Дзюн
Автор оригинала: Авадзу Дзюн
Студия: pic

Описание:
Жил один ученый, разрабатывал Шагающих Роботов гигантских. И вот, во время очередного эксперимента, погибла его дочка. Не выдержав утраты, ученый сломался и, заперевшись в своей квартире, предался горю. А тем временем Земля оказалась перенаселена и Большие Умные Люди приступили к поиску новой планеты, пригодной для жизни. Одним шагом в Исходе с Земли стала попытка создания атмосферы на Марсе, приведшая к пробуждению Негадона - Древнего Марсианского Чудовища. Если японская армия не способна остановить монстра, вознамерившегося уничтожить жизнь на Земле, кто спасет человечество?

© V.L.F., World Art


В энциклопедиях:   World Art  |  AniDB  |  ANN  |  MAL  |  Wikipedia

Личная оценка: 5 из 10

  • Источник релиза:
    • [торрент иваниваныч]
    Качество видео:
    • DVDRip
    Видео:
    • AVC 10bit, 848×372 (712×372 анаморф), ~2590 кбит/с
    Аудио:
    • Японская | FLAC, 2 канала, ~510 кбит/с - оригинальная, в контейнере
    Субтитры:
    • Русские - внешними файлами - [Rei]
    • Английские - внешними файлами - [HF-network]


Скриншоты:
pic pic pic pic
pic pic pic pic
pic pic pic pic
Параметры видео | аудио:
Общее
Уникальный идентификатор : 170512590739104095998415828391096747321 (0x804787CAE997D70DACF4855EC0100539)
Полное имя : D:\Wakusei Daikaiju Negadon [DVDrip, 396p] [торрент иваниваныч]\[торрент иваниваныч] Wakusei Daikaiju Negadon [DVDrip 712x372 x264 FLAC].mkv
Формат : Matroska
Версия формата : Version 4 / Version 2
Размер файла : 573 Мбайт
Продолжительность : 25 м.
Режим общего битрейта : Переменный
Общий поток : 3101 Кбит/сек
Название фильма : рип торрент иваниваныч
Дата кодирования : UTC 2014-11-05 07:17:37
Программа кодирования : mkvmerge v6.0.0 ('Coming Up For Air') built on Jan 20 2013 09:52:00
Библиотека кодирования : libebml v1.3.0 + libmatroska v1.4.0

Видео
Идентификатор : 1
Формат : AVC
Формат/Информация : Advanced Video Codec
Профиль формата : High 10@L5.2
Параметр CABAC формата : Да
Параметр ReFrames формата : 16 кадров
Идентификатор кодека : V_MPEG4/ISO/AVC
Продолжительность : 25 м.
Ширина : 712 пикселей
Высота : 372 пикселя
Соотношение сторон : 2,25:1
Соотношение сторон в оригинале : 2,25:1
Режим частоты кадров : Постоянный
Частота кадров : 29,970 кадров/сек
Цветовое пространство : YUV
Субдискретизация насыщенности : 4:2:0
Битовая глубина : 10 бит
Тип развёртки : Прогрессивная
Заголовок : Wakusei dai kaiju Negadon
Библиотека кодирования : x264 core 130 r2273 b3065e6
Настройки программы : cabac=1 / ref=16 / deblock=1:0:0 / analyse=0x3:0x133 / me=tesa / subme=9 / psy=0 / mixed_ref=1 / me_range=32 / chroma_me=1 / trellis=0 / 8x8dct=1 / cqm=0 / deadzone=21,11 / fast_pskip=0 / chroma_qp_offset=0 / threads=8 / lookahead_threads=2 / sliced_threads=0 / nr=0 / decimate=1 / interlaced=0 / bluray_compat=0 / constrained_intra=0 / bframes=16 / b_pyramid=2 / b_adapt=2 / b_bias=0 / direct=3 / weightb=1 / open_gop=0 / weightp=2 / keyint=250 / keyint_min=25 / scenecut=40 / intra_refresh=0 / rc_lookahead=60 / rc=crf / mbtree=1 / crf=14.0 / qcomp=0.60 / qpmin=0 / qpmax=81 / qpstep=4 / ip_ratio=1.40 / aq=2:1.00
Язык : Japanese
Default : Да
Forced : Нет

Аудио
Идентификатор : 2
Формат : FLAC
Формат/Информация : Free Lossless Audio Codec
Идентификатор кодека : A_FLAC
Продолжительность : 25 м.
Вид битрейта : Переменный
Каналы : 2 канала
Частота : 48,0 КГц
Битовая глубина : 16 бит
Заголовок : jpn
Библиотека кодирования : Lavf53.19.0
Язык : Japanese
Default : Да
Forced : Нет

Меню
00:00:00.000 : :Chapter 01
00:01:50.934 : :Chapter 02
00:14:56.934 : :Chapter 03
00:23:59.934 : :Chapter 04
00:25:47.434 : :Chapter 05

batyrmastyr

post 28-Окт-2015 23:26

Quote

Rakuen Tsuihou
-Expelled From Paradise-
Изгнанные из Рая
楽園追放 -Expelled From Paradise-


Тип: полнометражный фильм

pic
Жанры: боевик, меха, сэйнэн, фантастика
Длительность: 1 эп. по 105 мин.
Время выхода: 15.11.2014
Страна: Япония

Режиссёр: Мидзусима Сэйдзи
Сценарист: Уробучи Гэна
Студия: Graphinica

Описание:
Очередное постапокалиптическое будущее. Превращенная в пустыню Земля населена некоторым количеством совершенно несимпатичных насекомых и чуть более симпатичных людей. Остальное человечество оцифровано и проживает на космической станции, благоденствуя в виртуальной реальности. Но в этом футуристическом раю свои проблемы. Пока добропорядочные граждане недоуменно выслушивают нелепые послания дерзкого хакера, Управление Безопасности роет землю в поисках злоумышленника. Вернее, Землю, отправляя на планету своих агентов с неплохими мехами. Приключения такого агента, Анжелы Бальзак, в суровом реальном мире складываются во вполне годный сюжет для приключенческого кино, хотя ему (как и многим картинам с упором на зрелищность) все же недостает и глубины, и продуманности. © 335neschastya


В энциклопедиях:   AniDB  |  World Art  |  Википедия

  • Качество видео:
    • BDrip
    Видео:
    • AVC, 1280 * 720, 3 540 кбит/с
    Аудио:
    • Японская | Vorbis, 2 канала, 224 кбит/с - оригинальная, в контейнере
    Субтитры:
    • Русские - внешними файлами - Zero, volta_john
    • Русские - внешними файлами - [GMC] - Sovereign, St_Ranger, Nerevar, DarkScorpio
    • Русские - внешними файлами - (Архив субтитров на Kage Project)


Скриншоты:
pic pic pic pic pic pic pic pic pic pic pic pic pic pic pic
Параметры видео | аудио:
General
Unique ID : 264639597175784805699409505825881544082 (0xC717BB82F7742B135599823D084B5592)
Complete name : /Users/batyrmastyr/Desktop/_VID/Rakuen Tsuihou ~Expelled from Paradise~ [2014, BDrip, 720p]/Rakuen Tsuihou ~Expelled from Paradise~ (BDRip 1280x720 H.264 Vorbis).mkv
Format : Matroska
Format version : Version 4 / Version 2
File size : 2.78 GiB
Duration : 1h 43mn
Overall bit rate mode : Variable
Overall bit rate : 3 840 Kbps
Movie name : Rakuen Tsuihou ~Expelled from Paradise~ (BDRip 1920x1080 x264 FLAC).mkv
Encoded date : UTC 2015-10-04 19:11:42
Writing application : mkvmerge v8.0.0 ('Til The Day That I Die') 64bit
Writing library : libebml v1.3.1 + libmatroska v1.4.2

Video
ID : 1
Format : AVC
Format/Info : Advanced Video Codec
Format profile : High@L4.0
Format settings, CABAC : Yes
Format settings, ReFrames : 6 frames
Codec ID : V_MPEG4/ISO/AVC
Duration : 1h 43mn
Bit rate : 3 540 Kbps
Width : 1 280 pixels
Height : 720 pixels
Display aspect ratio : 16:9
Frame rate mode : Constant
Frame rate : 23.976 fps
Color space : YUV
Chroma subsampling : 4:2:0
Bit depth : 8 bits
Scan type : Progressive
Bits/(Pixel*Frame) : 0.160
Stream size : 2.56 GiB (92%)
Writing library : x264 core 142 r2479 dd79a61
Encoding settings : cabac=1 / ref=6 / deblock=1:0:0 / analyse=0x3:0x133 / me=umh / subme=10 / psy=1 / psy_rd=1.00:0.00 / mixed_ref=1 / me_range=16 / chroma_me=1 / trellis=2 / 8x8dct=1 / cqm=0 / deadzone=21,11 / fast_pskip=1 / chroma_qp_offset=-2 / threads=12 / lookahead_threads=1 / sliced_threads=0 / nr=0 / decimate=0 / interlaced=0 / bluray_compat=0 / constrained_intra=0 / bframes=3 / b_pyramid=2 / b_adapt=2 / b_bias=0 / direct=3 / weightb=1 / open_gop=0 / weightp=1 / keyint=240 / keyint_min=24 / scenecut=40 / intra_refresh=0 / rc_lookahead=40 / rc=crf / mbtree=1 / crf=15.0 / qcomp=0.60 / qpmin=7 / qpmax=20 / qpstep=4 / ip_ratio=1.40 / aq=1:1.00
Default : Yes
Forced : No
Color primaries : BT.709
Transfer characteristics : BT.709
Matrix coefficients : BT.709
DURATION : 01:43:38.213000000
NUMBER_OF_FRAMES : 149088
NUMBER_OF_BYTES : 2816978799
_STATISTICS_WRITING_APP : mkvmerge v8.0.0 ('Til The Day That I Die') 64bit
_STATISTICS_WRITING_DATE_UTC : 2015-10-04 19:11:42
_STATISTICS_TAGS : BPS DURATION NUMBER_OF_FRAMES NUMBER_OF_BYTES

Audio
ID : 2
Format : Vorbis
Format settings, Floor : 1
Codec ID : A_VORBIS
Duration : 1h 43mn
Bit rate mode : Variable
Bit rate : 224 Kbps
Channel(s) : 2 channels
Sampling rate : 48.0 KHz
Compression mode : Lossy
Stream size : 166 MiB (6%)
Title : Stereo
Writing library : aoTuV 20110424 (UTC 2011-04-24)
Language : Japanese
Default : Yes
Forced : No
DURATION : 01:43:38.141000000
NUMBER_OF_FRAMES : 757213
NUMBER_OF_BYTES : 165116408
_STATISTICS_WRITING_APP : mkvmerge v8.0.0 ('Til The Day That I Die') 64bit
_STATISTICS_WRITING_DATE_UTC : 2015-10-04 19:11:42
_STATISTICS_TAGS : BPS DURATION NUMBER_OF_FRAMES NUMBER_OF_BYTES
Writing application : HandBrake

batyrmastyr

post 24-Авг-2015 22:50

Quote

Gekijouban Psycho-Pass
Психопаспорт
Psycho-Pass: Der Film


Тип: полнометражный фильм

pic
Жанры: боевик, полиция, меха, фантастика
Длительность: 1 эп. по 115 мин.
Время выхода: 09.01.2015
Страна: Япония

Режиссёр: Сиотани Наоёси
Автор оригинала: Уробути Гэн
Студия: Production I.G

Описание:
2116 год. Японское правительство начинает экспортировать автономных роботов-дронов с системой Сивиллы в «проблемные» страны, и Сивилла распространяется по всему миру. В качестве эксперимента решается запустить Сивиллу в СЮВАС (Союз Юго-Восточных Азиатских Стран) — государство, истерзанное гражданской войной. Опыт оказался удачным, и благодаря новой системе прибрежный город Шамбала начинает благоденствовать в обстановке временного перемирия и безопасности. Однако затем СЮВАС посылает в Японию своих агентов с целью совершить теракт. Те успешно проникают сквозь охрану Сивиллы и наносят удар изнутри. Подозрение падает на конкретного человека. Ответственная за проведение расследования, офицер Цунэмори отправляется в Шамбалу. Истинная справедливость восстановит свою чистоту на новой земле.
© Shikimori


В энциклопедиях:   AniDB  |  World Art  |  Википедия

  • Качество видео:
    • BDrip
    Видео:
    • AVC, 1280 * 720, 3 710 кбит/с
    Аудио:
    • Японская | Vorbis, 2 канала, 224 кбит/с - оригинальная, в контейнере
    Субтитры:
    • Русские - внешними файлами - [GMC] - Jarly, Nerevar, Sovereign, St_Ranger


Скриншоты:
pic pic pic pic pic pic pic pic pic pic pic pic pic pic
Параметры видео | аудио:
General
Unique ID : 37707796156012314830488249229748517055 (0x1C5E41E35A32F8096AF609D01F7CB8BF)
Complete name : /Users/batyrmastyr/Desktop/_VID/Gekijouban Psycho-Pass [2015, BDrip, 720p]/Gekijouban PSYCHO-PASS (BDRip 1280x720 H.264 Vorbis).mkv
Format : Matroska
Format version : Version 4 / Version 2
File size : 3.19 GiB
Duration : 1h 53mn
Overall bit rate mode : Variable
Overall bit rate : 4 014 Kbps
Movie name : Gekijouban PSYCHO-PASS
Encoded date : UTC 2015-08-23 20:09:14
Writing application : mkvmerge v8.0.0 ('Til The Day That I Die') 64bit
Writing library : libebml v1.3.1 + libmatroska v1.4.2

Video
ID : 1
Format : AVC
Format/Info : Advanced Video Codec
Format profile : High@L4.0
Format settings, CABAC : Yes
Format settings, ReFrames : 6 frames
Codec ID : V_MPEG4/ISO/AVC
Duration : 1h 53mn
Bit rate : 3 710 Kbps
Width : 1 280 pixels
Height : 720 pixels
Display aspect ratio : 16:9
Frame rate mode : Constant
Frame rate : 23.976 fps
Color space : YUV
Chroma subsampling : 4:2:0
Bit depth : 8 bits
Scan type : Progressive
Bits/(Pixel*Frame) : 0.168
Stream size : 2.95 GiB (92%)
Writing library : x264 core 142 r2479 dd79a61
Encoding settings : cabac=1 / ref=6 / deblock=1:0:0 / analyse=0x3:0x133 / me=umh / subme=10 / psy=1 / psy_rd=1.00:0.00 / mixed_ref=1 / me_range=16 / chroma_me=1 / trellis=2 / 8x8dct=1 / cqm=0 / deadzone=21,11 / fast_pskip=1 / chroma_qp_offset=-2 / threads=12 / lookahead_threads=1 / sliced_threads=0 / nr=0 / decimate=0 / interlaced=0 / bluray_compat=0 / constrained_intra=0 / bframes=3 / b_pyramid=2 / b_adapt=2 / b_bias=0 / direct=3 / weightb=1 / open_gop=0 / weightp=1 / keyint=240 / keyint_min=24 / scenecut=40 / intra_refresh=0 / rc_lookahead=40 / rc=crf / mbtree=1 / crf=15.0 / qcomp=0.60 / qpmin=7 / qpmax=20 / qpstep=4 / ip_ratio=1.40 / aq=1:1.00
Default : Yes
Forced : No
Color primaries : BT.709
Transfer characteristics : BT.709
Matrix coefficients : BT.709
DURATION : 01:53:41.816000000
NUMBER_OF_FRAMES : 163560
NUMBER_OF_BYTES : 3239041124
_STATISTICS_WRITING_APP : mkvmerge v8.0.0 ('Til The Day That I Die') 64bit
_STATISTICS_WRITING_DATE_UTC : 2015-08-23 20:09:14
_STATISTICS_TAGS : BPS DURATION NUMBER_OF_FRAMES NUMBER_OF_BYTES

Audio
ID : 2
Format : Vorbis
Format settings, Floor : 1
Codec ID : A_VORBIS
Duration : 1h 53mn
Bit rate mode : Variable
Bit rate : 224 Kbps
Channel(s) : 2 channels
Sampling rate : 48.0 KHz
Compression mode : Lossy
Stream size : 182 MiB (6%)
Title : Stereo
Writing library : aoTuV 20110424 (UTC 2011-04-24)
Language : Japanese
Default : Yes
Forced : No
DURATION : 01:53:41.749000000
NUMBER_OF_FRAMES : 799802
NUMBER_OF_BYTES : 180569679
_STATISTICS_WRITING_APP : mkvmerge v8.0.0 ('Til The Day That I Die') 64bit
_STATISTICS_WRITING_DATE_UTC : 2015-08-23 20:09:14
_STATISTICS_TAGS : BPS DURATION NUMBER_OF_FRAMES NUMBER_OF_BYTES
Writing application : HandBrake

batyrmastyr

post 08-Июл-2015 22:21

Quote

Little Witch Academia: Mahou Shikake no Parade
Академия ведьмочек: Колдовской парад
リトルウィッチアカデミア 魔法仕掛けのパレード


Тип: полнометражный фильм

pic
Жанры: комедия, фэнтези
Длительность: 1 эп. по 55 мин.
Время выхода: 03.07.2015
Страна: Япония

Режиссёр: Ёсинари Ё
Студия: Trigger

Описание:
Продолжение повествования о приключениях юных ведьмочек.

Девочка Акко, побывав однажды на магическом представлении, с первого взгляда влюбилась в этот невероятный вид искусства. И ей даже удаётся поступить в лучшую в Европе школу магии "Luna Nova". Но обыденная учёба оказалась не такой уж и завораживающей, как она думала... И вот, когда разочарованная скучными и консервативными занятиями Акко уже перестаёт мечтать, её школа вдруг неожиданно подверглась нападению. И тут ей, как раз, выпадает возможность что-то изменить и спасти академию!


В энциклопедиях:   AniDB  |  World Art  |  Википедия

  • Качество видео:
    • BDrip
    Видео:
    • AVC, 1280 * 720, 2 910 кбит/с
    Аудио:
    • Японская | Vorbis, 2 канала, 224 кбит/с - оригинальная, в контейнере
    Субтитры:


Скриншоты:
pic pic pic pic pic pic pic pic pic pic pic pic pic pic pic pic pic pic
Параметры видео | аудио:
General
Unique ID : 98118450597125987446419744834862443602 (0x49D0ED1C1C64A8887EB4B1242A5FEC52)
Complete name : /Users/batyrmastyr/Desktop/_VID/Little Witch Academia 2 - Mahou Shikake no Parade [2015, BDrip, 720p]/Little Witch Academia 2 - Mahou Shikake no Parade (BDRip 1280x720 H.264 Vorbis).mkv
Format : Matroska
Format version : Version 4 / Version 2
File size : 1.19 GiB
Duration : 53mn 24s
Overall bit rate mode : Variable
Overall bit rate : 3 197 Kbps
Movie name : Little Witch Academia 02
Encoded date : UTC 2016-02-16 21:55:45
Writing application : mkvmerge v8.8.0 ('Wind at my back') 64bit
Writing library : libebml v1.3.3 + libmatroska v1.4.4

Video
ID : 1
Format : AVC
Format/Info : Advanced Video Codec
Format profile : High@L4.0
Format settings, CABAC : Yes
Format settings, ReFrames : 6 frames
Codec ID : V_MPEG4/ISO/AVC
Duration : 53mn 24s
Bit rate : 2 910 Kbps
Width : 1 280 pixels
Height : 720 pixels
Display aspect ratio : 16:9
Frame rate mode : Constant
Frame rate : 23.976 fps
Color space : YUV
Chroma subsampling : 4:2:0
Bit depth : 8 bits
Scan type : Progressive
Bits/(Pixel*Frame) : 0.132
Stream size : 1.09 GiB (91%)
Writing library : x264 core 142 r2479 dd79a61
Encoding settings : cabac=1 / ref=6 / deblock=1:0:0 / analyse=0x3:0x133 / me=umh / subme=10 / psy=1 / psy_rd=1.00:0.00 / mixed_ref=1 / me_range=16 / chroma_me=1 / trellis=2 / 8x8dct=1 / cqm=0 / deadzone=21,11 / fast_pskip=1 / chroma_qp_offset=-2 / threads=12 / lookahead_threads=1 / sliced_threads=0 / nr=0 / decimate=1 / interlaced=0 / bluray_compat=0 / constrained_intra=0 / bframes=3 / b_pyramid=2 / b_adapt=2 / b_bias=0 / direct=3 / weightb=1 / open_gop=0 / weightp=1 / keyint=240 / keyint_min=24 / scenecut=40 / intra_refresh=0 / rc_lookahead=40 / rc=crf / mbtree=1 / crf=15.0 / qcomp=0.60 / qpmin=7 / qpmax=20 / qpstep=4 / ip_ratio=1.40 / aq=1:1.00
Default : Yes
Forced : No
Color primaries : BT.709
Transfer characteristics : BT.709
Matrix coefficients : BT.709
DURATION : 00:53:24.201000000
NUMBER_OF_FRAMES : 76824
NUMBER_OF_BYTES : 1201336692
_STATISTICS_WRITING_APP : mkvmerge v8.8.0 ('Wind at my back') 64bit
_STATISTICS_WRITING_DATE_UTC : 2016-02-16 21:55:45
_STATISTICS_TAGS : BPS DURATION NUMBER_OF_FRAMES NUMBER_OF_BYTES

Audio
ID : 2
Format : Vorbis
Format settings, Floor : 1
Codec ID : A_VORBIS
Duration : 53mn 24s
Bit rate mode : Variable
Bit rate : 224 Kbps
Channel(s) : 2 channels
Sampling rate : 48.0 KHz
Compression mode : Lossy
Stream size : 85.6 MiB (7%)
Title : Stereo
Writing library : aoTuV 20110424 (UTC 2011-04-24)
Language : Japanese
Default : Yes
Forced : No
DURATION : 00:53:24.130000000
NUMBER_OF_FRAMES : 332601
NUMBER_OF_BYTES : 77959573
_STATISTICS_WRITING_APP : mkvmerge v8.8.0 ('Wind at my back') 64bit
_STATISTICS_WRITING_DATE_UTC : 2016-02-16 21:55:45
_STATISTICS_TAGS : BPS DURATION NUMBER_OF_FRAMES NUMBER_OF_BYTES
Writing application : HandBrake

batyrmastyr

post 03-Май-2015 11:01

Quote

Gekijouban K: Missing Kings
Кей: Пропавшие короли
劇場版K MISSING KINGS


Тип: полнометражный фильм

pic
Жанры: магия, приключения, современное фентези
Длительность: 1 эп. по 75 мин.
Время выхода: 12.07.2014
Страна: Япония

Режиссёр: Судзуки Синго
Студия: Go Hands

Описание:
"Инцидент на Асинаке". Тот трагичный день, когда сошлись пути четырех одиноких Королей... Сколько месяцев минуло с тех пор? Все это время Куро и Нэко продолжали искать своего друга и владыку, Серебряного Короля, Сиро. Однако и самые преданные сторонники нуждаются в добрых новостях, и, не найдя ни малейшей подсказки о местоположении хозяина, Пёс и Кошка медленно начинают впадать в отчаяние. Но когда у них уже почти опустились руки, Куро и Нэко становятся свидетелями того, как за членами Хомры, Анной и Рикио, кто-то гонится. Похоже, назревает что-то серьезное… © shikimori
Продолжение сериала.

В энциклопедиях:   AniDB  |  Википедия  |  World Art

  • Качество видео:
    • BDrip
    Видео:
    • AVC, 1280 * 720, 4 488 кбит/с
    Аудио:
    • Японская | Vorbis, 2 канала, 224 кбит/с - оригинальная, в контейнере
    Субтитры:


Скриншоты:
pic pic pic pic pic pic pic pic pic pic pic pic pic pic pic pic pic
Параметры видео | аудио:
General
Unique ID : 289261086282224788644096675572365181609 (0xD99DA8A5EABCE430CCD6D8E60958C2A9)
Complete name : /Users/batyrmastyr/Desktop/_VID/Project-K ~Missing Kings~ [2015, BDrip, 720p]/Project-K ~Missing Kings~ (BDRip 1280x720 H.264 Vorbis).mkv
Format : Matroska
Format version : Version 4 / Version 2
File size : 2.46 GiB
Duration : 1h 13mn
Overall bit rate mode : Variable
Overall bit rate : 4 808 Kbps
Movie name : Project-K ~Missing Kings~
Encoded date : UTC 2015-05-03 06:53:27
Writing application : mkvmerge v7.7.0 ('Six Voices') 64bit built on Mar 7 2015 18:35:02
Writing library : libebml v1.3.1 + libmatroska v1.4.2

Video
ID : 1
Format : AVC
Format/Info : Advanced Video Codec
Format profile : High@L4.0
Format settings, CABAC : Yes
Format settings, ReFrames : 6 frames
Codec ID : V_MPEG4/ISO/AVC
Duration : 1h 13mn
Bit rate : 4 488 Kbps
Width : 1 280 pixels
Height : 720 pixels
Display aspect ratio : 16:9
Frame rate mode : Constant
Frame rate : 23.976 fps
Color space : YUV
Chroma subsampling : 4:2:0
Bit depth : 8 bits
Scan type : Progressive
Bits/(Pixel*Frame) : 0.203
Stream size : 2.30 GiB (93%)
Writing library : x264 core 142 r2479 dd79a61
Encoding settings : cabac=1 / ref=6 / deblock=1:0:0 / analyse=0x3:0x133 / me=umh / subme=10 / psy=1 / psy_rd=1.00:0.00 / mixed_ref=1 / me_range=16 / chroma_me=1 / trellis=2 / 8x8dct=1 / cqm=0 / deadzone=21,11 / fast_pskip=1 / chroma_qp_offset=-2 / threads=12 / lookahead_threads=1 / sliced_threads=0 / nr=0 / decimate=0 / interlaced=0 / bluray_compat=0 / constrained_intra=0 / bframes=3 / b_pyramid=2 / b_adapt=2 / b_bias=0 / direct=3 / weightb=1 / open_gop=0 / weightp=1 / keyint=240 / keyint_min=24 / scenecut=40 / intra_refresh=0 / rc_lookahead=40 / rc=crf / mbtree=1 / crf=15.0 / qcomp=0.60 / qpmin=7 / qpmax=20 / qpstep=4 / ip_ratio=1.40 / aq=1:1.00
Default : Yes
Forced : No
Color primaries : BT.709
Transfer characteristics : BT.709
Matrix coefficients : BT.709
DURATION : 01:13:12.389000000
NUMBER_OF_FRAMES : 105312
NUMBER_OF_BYTES : 2518530340
_STATISTICS_WRITING_APP : mkvmerge v7.7.0 ('Six Voices') 64bit built on Mar 7 2015 18:35:02
_STATISTICS_WRITING_DATE_UTC : 2015-05-03 06:53:27
_STATISTICS_TAGS : BPS DURATION NUMBER_OF_FRAMES NUMBER_OF_BYTES

Audio
ID : 2
Format : Vorbis
Format settings, Floor : 1
Codec ID : A_VORBIS
Duration : 1h 13mn
Bit rate mode : Variable
Bit rate : 224 Kbps
Channel(s) : 2 channels
Sampling rate : 48.0 KHz
Compression mode : Lossy
Stream size : 117 MiB (5%)
Title : Stereo
Writing library : aoTuV 20110424 (UTC 2011-04-24)
Language : Japanese
Default : Yes
Forced : No
DURATION : 01:13:12.333000000
NUMBER_OF_FRAMES : 514298
NUMBER_OF_BYTES : 119425493
_STATISTICS_WRITING_APP : mkvmerge v7.7.0 ('Six Voices') 64bit built on Mar 7 2015 18:35:02
_STATISTICS_WRITING_DATE_UTC : 2015-05-03 06:53:27
_STATISTICS_TAGS : BPS DURATION NUMBER_OF_FRAMES NUMBER_OF_BYTES
Writing application : HandBrake
BDrip 1080p - там.

batyrmastyr

post 08-Апр-2015 22:45

Quote

Lupin the IIIrd: Jigen Daisuke no Bohyou
Люпен третий: Могила Дзигэна Дайскэ
LUPIN THE IIIRD 次元大介の墓標


Тип: короткометражный фильм

pic
Жанры: приключения, сэйнэн,
Длительность: 2 эп. по 25 мин.
Время выхода: 21.06.2014
Страна: Япония

Режиссёр: Койкэ Такэси
Автор оригинала: Манки Панч
Студия: Telecom Animation Film

Описание:
Вдохнуть в старую и избитую историю, длящуюся уже не первый год, новую жизнь трудно. То же касается и Люпена и Ко, какой бы только любовью он ни пользовался у своих фанатов и любителей.
Однако бывает находятся новые люди, способные исправить сию проблему. Такие замечательные люди не обошли стороной Люпена.
Совсем недавно Люпен вновь вернулся к своему зрителю в новом стиле, под названием Женщина по имени Фудзико, вдохнувшая новую жизнь в многолетнюю франшизу.
Что ж, создатели решили не останавливаться. Уже в этом году нас ожидает новый сериал, который по стилистике будет продолжением оного. Но перед этим они решили порадовать нас маленькой предысторией. Небольшой, всего-то 50 с чем-то минут, считая титры. Но какой же она получилась остренькой. © shin-to


В энциклопедиях:   AniDB  |  World Art

  • Источник релиза:
    • [Underwater-FFF]
    Качество видео:
    • BDrip
    Видео:
    • AVC 10bit, 1280 * 720, 3100 кбит/с
    Аудио:
    • Японская | AAC, 2 канала, 290 кбит/с - оригинальная, в контейнере
    Субтитры:
    • Английские - отключаемые, встроенные - [Underwater-FFF]
    • Русские - внешними файлами - (Архив субтитров на Kage Project)
    • Русские - внешними файлами (во 2-м сообщении) - Алекс Миф, Hollow, Сурокунэ


Скриншоты:
pic pic pic pic pic pic pic pic pic pic pic
Параметры видео | аудио:
General
Unique ID : 170778772299013729706243955860795382477 (0x807ACB8E888836178AE45B1BD3FD5ACD)
Complete name : /Volumes/t/ongoing/Lupin III - Daisuke Jigen's Gravestone [2014, BDrip, 720p]/[Underwater-FFF] Lupin III - Daisuke Jigen's Gravestone - 01 (BD 720p) [C7F17F89].mkv
Format : Matroska
Format version : Version 4 / Version 2
File size : 645 MiB
Duration : 26mn 22s
Overall bit rate : 3 417 Kbps
Movie name : Lupin III - Daisuke Jigen's Gravestone - Part One
Encoded date : UTC 2014-12-07 08:45:12
Writing application : mkvmerge v7.1.0 ('Good Love') 64bit built on Sep 8 2014 15:10:52
Writing library : libebml v1.3.0 + libmatroska v1.4.1
Attachements : IwaMinPro-Md-Kami_0.ttf / IwaOMinPro-Bd-Fate_0.ttf / IwaOMinPro-Hv-Fate_0.ttf / KozGoPr6N-Regular-Noragami_0.ttf / SubClearSans-BoldItalic_0.ttf / SubClearSans-Bold_0.ttf

Video
ID : 1
Format : AVC
Format/Info : Advanced Video Codec
Format profile : High 4:4:4 Predictive@L5.0
Format settings, CABAC : Yes
Format settings, ReFrames : 16 frames
Codec ID : V_MPEG4/ISO/AVC
Duration : 26mn 22s
Width : 1 280 pixels
Height : 720 pixels
Display aspect ratio : 16:9
Frame rate mode : Constant
Frame rate : 23.976 fps
Color space : YUV
Chroma subsampling : 4:4:4
Bit depth : 10 bits
Scan type : Progressive
Title : H.264 (10-bit)
Writing library : x264 core 142 r2391+22 [x86_64 10bit-depth]
Encoding settings : cabac=1 / ref=16 / deblock=1:-1:-2 / analyse=0x3:0x133 / me=umh / subme=10 / psy=1 / fade_compensate=0.40 / psy_rd=0.80:0.00 / mixed_ref=1 / me_range=24 / chroma_me=1 / trellis=2 / 8x8dct=1 / cqm=0 / deadzone=21,11 / fast_pskip=0 / chroma_qp_offset=4 / threads=12 / lookahead_threads=3 / sliced_threads=0 / nr=0 / decimate=0 / interlaced=0 / bluray_compat=0 / constrained_intra=0 / fgo=0 / bframes=16 / b_pyramid=2 / b_adapt=2 / b_bias=0 / direct=3 / weightb=1 / open_gop=0 / weightp=2 / keyint=480 / keyint_min=24 / scenecut=40 / intra_refresh=0 / rc_lookahead=60 / rc=crf / mbtree=1 / crf=16.0000 / qcomp=0.65 / qpmin=14 / qpmax=48 / qpstep=4 / ip_ratio=1.40 / aq=3:0.70
Language : Japanese
Default : Yes
Forced : No
Matrix coefficients : BT.709

Audio
ID : 2
Format : AAC
Format/Info : Advanced Audio Codec
Format profile : LC
Codec ID : A_AAC
Duration : 26mn 22s
Channel(s) : 2 channels
Channel positions : Front: L R
Sampling rate : 48.0 KHz
Compression mode : Lossy
Delay relative to video : 20ms
Title : Japanese 2.0 AAC
Language : Japanese
Default : Yes
Forced : No

Text
ID : 3
Format : ASS
Codec ID : S_TEXT/ASS
Codec ID/Info : Advanced Sub Station Alpha
Compression mode : Lossless
Title : English
Language : English
Default : Yes
Forced : No

Menu
00:00:00.000 : :Intro
00:00:39.998 : :Episode
00:24:33.430 : :Ending

MAXI

post 26-Мар-2015 22:45

Quote

Gekijouban Blood-C: The Last Dark
Кровь-С: Последняя Тьма
劇場版 Blood-C The Last Dark


Тип: полнометражный фильм

pic
Жанры: драма, мистика, приключения,
Длительность: 1 эп. 1 час 46 минут
Время выхода: 02.06.2012
Страна: Япония

Режиссёр: Shiotani Naoyoshi
Сценарист: Ohkawa Nanase, Fujisaku Junichi
Студия: Production I.G, CLAMP

Описание:
ОСТОРОЖНО, СПОЙЛЕРЫ
Сюжет полнометражки по Blood-C будет вертется вокруг мести Саи. Как мы помним в самом сериале ее "кинул" Фумито, хозяих кафешки и сосед Саи. Он оказался тем кто поставил бесчеловечный эксперимент над Саей и Древними. Для этого был создан город-полигон, наняты актеры-жители каждый из которых получил свою роль. Даже одноклассники Саи оказались всего лишь подставными лицами, многие с криминальным прошлым, и которые согласились на предложение Фумито сцелью подправить свою биографию и/или подзаработать. Именно Фумино контролировал появление Древних и их нападения, делал это он при помощи крови Саи, взятой у нее сразу после ее захвата. Так как Саи стерли память она поверила в то что только мечом из храма ее "отца" она будучи избранной жрицей способна убивать Древних. Хотя на самом деле она может убивать их любым подручным предметом. Ну а для того чтобы Сая не узнала кто она Фумито подмешивал в зефир/пастелу которую она регулярно заказывала в его кафе кровь убитых ею Древних, тем самым стерая ее память о сражении с ними и особенно о том что она после каждой битвы пила кровь Древнего, утоляя свою жажду крови древнего/идеального вампира. Наконец когда эксперимент увенчался успехом, Сая продолжала истреблять Древних даже потеряв свою память, и делая это не хуже чем с оной. После того как Фумито раскрыл карты, ей надо его убить. Отомстить за все что он сделал с ней и окружающими, достаточно вспомнить что стало с жителями-статистами которых просто скормили Древним в соответствии с "Соглашением", которому сотни лет.
Правда остается "маленькая" проблема - Сая не может убить человека. Не по моральным установкам, а просто физически не может убить человека. Древние не в состоянии убивать людей, только нечесть вроде себя самих. В общем интересно как КЛЭМП заставит Саю мстить/убивать Фумино. А может он и вообще не человеком окажется?


В энциклопедиях:   World Art  |  AniDB  |  ANN

Личная оценка: 7 из 10

  • Источник релиза:
    • [ANK-Raws] - эпизоды 1
    Качество видео:
    • BDrip
    Видео:
    • AVC 10bit, 1920 * 1080, ~7800 кбит/с
    Аудио:
    • Японская | FLAC, 2 канала, ~1200 кбит/с - оригинальная, в контейнере
    • Японская | другой, 2 канала, ~4000 кбит/с - оригинальная, внешними файлами
    Субтитры:
    • Русские - внешними файлами - Vistar
    • Русские - внешними файлами - CAMELISUBS - Перевод, тайминг и оформление: LeoDreaM; Редактирование: Kizumi, Максим Долматов, Галина Кузьминых


Скриншоты:
pic pic pic pic
Параметры видео | аудио:
Video
ID : 1
Format : AVC
Format/Info : Advanced Video Codec
Format profile : High 10@L5.0
Format settings, CABAC : Yes
Format settings, ReFrames : 5 frames
Codec ID : V_MPEG4/ISO/AVC
Duration : 1h 46mn
Nominal bit rate : 4 000 Kbps
Width : 1 920 pixels
Height : 1 080 pixels
Display aspect ratio : 16:9
Frame rate : 23.976 fps
Color space : YUV
Chroma subsampling : 4:2:0
Bit depth : 10 bits
Scan type : Progressive
Bits/(Pixel*Frame) : 0.080
Title : ANK-Raws
Writing library : x264 core 125 r2200+666+30 20c70fc tMod [10-bit@4:2:0 X86]
Encoding settings : cabac=1 / ref=5 / deblock=1:-2:-2 / analyse=0x3:0x133 / me=umh / subme=9 / psy=1 / fade_compensate=0.00 / psy_rd=0.60:0.00 / mixed_ref=1 / me_range=48 / chroma_me=1 / trellis=2 / 8x8dct=1 / cqm=0 / deadzone=21,11 / fast_pskip=1 / chroma_qp_offset=-2 / threads=18 / lookahead_threads=3 / sliced_threads=0 / nr=0 / decimate=1 / interlaced=0 / bluray_compat=0 / constrained_intra=0 / fgo=0 / bframes=8 / b_pyramid=2 / b_adapt=2 / b_bias=0 / direct=3 / weightb=1 / open_gop=0 / weightp=2 / keyint=500 / keyint_min=1 / scenecut=40 / intra_refresh=0 / rc=2pass / mbtree=0 / bitrate=4000 / ratetol=1.0 / qcomp=0.60 / qpmin=8 / qpmax=32 / qpstep=4 / cplxblur=20.0 / qblur=0.5 / ip_ratio=1.40 / pb_ratio=1.30 / aq=4:1.00
Language : English
Color primaries : BT.709-5, BT.1361, IEC 61966-2-4, SMPTE RP177
Transfer characteristics : BT.709-5, BT.1361
Matrix coefficients : BT.709-5, BT.1361, IEC 61966-2-4 709, SMPTE RP177

Audio
ID : 1
Format : FLAC
Format/Info : Free Lossless Audio Codec
Codec ID : A_FLAC
Duration : 1h 46mn
Bit rate mode : Variable
Channel(s) : 2 channels
Channel positions : Front: L R
Sampling rate : 48.0 KHz
Bit depth : 24 bits
Writing library : libFLAC 1.2.1 (UTC 2007-09-17)

Audio
ID: 2
Format: DTS
Format/Info: Digital Theater Systems
Format profile: MA / Core
Mode: 16
Format settings, Endianness: Big
Codec ID: A_DTS
Duration: 1h 46mn
Bit rate mode: Variable
Bit rate: Unknown / 1 509 Kbps
Channel(s): 6 channels
Channel positions: Front: L C R, Side: L R, LFE
Sampling rate: 48.0 KHz
Bit depth: 24 bits
Compression mode: Lossless / Lossy
Default: Yes
Forced : No

Smith

post 21-Дек-2014 22:17

Quote

pic
Sojunghan nare kkum
Незабываемый сон: динозавр и я
소중한 날의 꿈


Производство: Южная Корея
Жанр: Романтика, школа, сёдзё.
Тип: полнометражный фильм
Выход в прокат: 2011.06.23

Режиссёры: Ан Чэ Хун, Хан Хе Джин
Качество видео: DVDRip
Рипгруппа: ValdikSS
Наличие Хардсабов: софтсаб, Английские
Видео: кодек: AVC размер: 720x360 битрейт: 1098 Кб/с
Аудио: язык: Корейский кодек: AC-3 6ch биртейт: 448 Кб/с

Описание: Ультра-ностальгическая (для южных корейцев) мультипликационная картина, выполненная тру-олдскульным способом - без применения компьютерных технологий. 14 корейских аниматоров трудились примерно 11 лет, чтобы на более, чем 100000 страниц рассказать нам историю о взрослении, первой школьной любви, сомнениях, преодолении страхов и о поиске своего пути в жизни.

Фильм немножко похож на такие вещи как "Здесь слышен океан" и "Со склонов Кокурико".
Скиншоты:
pic
pic
pic
pic
pic
pic
pic
pic
pic
pic
pic
pic

batyrmastyr

post 11-Май-2014 12:52

Quote

Gekijouban Mahou Shoujo Madoka Magica
Puella Magi Madoka Magica the Movie
Волшебница Мадока
Волшебница Мадока Магика
劇場版 魔法少女まどか☆マギカ


Тип: полнометражный фильм

pic
Жанры: взросление, девочки-волшебницы, сэйнэн, трагедия
Длительность: 3 эп. по 110-130 мин.
Время выхода: 06.10.2012 - 26.10.2013
Страна: Япония

Режиссёр: Симбо Акиюки
Сценарист: Уробути Гэн
Студия: SHAFT

Описание:
14-летняя Мадока Каномэ спокойно жила в современной японской семье с мамой - деловой женщиной, папой-домохозяином и маленьким братиком. Все изменил один неясный сон, где темноволосая девочка, по виду ее ровесница, сражалась с силами зла в каком-то фантасмагорическом мире. Излишне говорить, что утром Мадока увидела ее в школе, и новая знакомая по имени Хомура Акэми прямым текстом заявила - не стоит посторонним лезть не в свое дело. Но как простая, но честная и справедливая японская школьница может остаться в стороне, когда на глазах убивают милого зверька, а привычный мир, похоже, сходит с ума?
© Hollow, World Art


В энциклопедиях:   AniDB  |  World Art  |  World Art  |  Wikipedia

  • Качество видео:
    • BDrip
    Видео:
    • AVC, 1280 * 720, 2 696 кбит/с
    Аудио:
    • Японская | Vorbis, 2 канала, 224 кбит/с - оригинальная, в контейнере
    Субтитры:
    • Русские - внешними файлами - (Архив субтитров на Kage Project)
    • Русские - внешними файлами (во 2-м посте) - [Dreamers Team] - junnes
    • Русские - внешними файлами (во 2-м посте) - Nesitach, Stan WarHammer
    • Русские - внешними файлами (во 2-м посте) - [Shift & Eternal HARO & Timecraft] - Evafan, Sa4ko aka Kiyoso, Reaper, Xellos Slayer, DJATOM, Alex_Myth, matoi-kun
Скриншоты:
pic pic pic pic pic pic pic pic pic pic pic pic pic pic pic pic
Параметры видео | аудио:
General
Unique ID : 9282010797862499085988891849032678101 (0x6FBA6770B5BB819432113BA22F33AD5)
Complete name : /Users/batyrmastyr/Desktop/_VID/Новая папка/Gekijouban Mahou Shoujo Madoka Magika [2012-2013, BDrip, 720p]/Gekijouban Mahou Shoujo Madoka Magika - Part 1 (BDRip 1280x720 x264 Vorbis).mkv
Format : Matroska
File size : 2.73 GiB
Duration : 2h 11mn
Overall bit rate : 2 979 Kbps
Encoded date : UTC 2014-05-11 07:47:49
Writing application : mkvmerge v6.1.0 ('Old Devil') built on Mar 2 2013 22:22:31
Writing library : libebml v1.3.0 + libmatroska v1.4.0

Video
ID : 1
Format : AVC
Format/Info : Advanced Video Codec
Format profile : High@L4.0
Format settings, CABAC : Yes
Format settings, ReFrames : 6 frames
Codec ID : V_MPEG4/ISO/AVC
Duration : 2h 11mn
Bit rate : 2 696 Kbps
Width : 1 280 pixels
Height : 720 pixels
Display aspect ratio : 16:9
Frame rate : 23.976 fps
Color space : YUV
Chroma subsampling : 4:2:0
Bit depth : 8 bits
Scan type : Progressive
Bits/(Pixel*Frame) : 0.122
Stream size : 2.47 GiB (90%)
Writing library : x264 core 130 r2273 b3065e6
Encoding settings : cabac=1 / ref=6 / deblock=1:0:0 / analyse=0x3:0x133 / me=umh / subme=10 / psy=1 / psy_rd=1.00:0.00 / mixed_ref=1 / me_range=16 / chroma_me=1 / trellis=2 / 8x8dct=1 / cqm=0 / deadzone=21,11 / fast_pskip=1 / chroma_qp_offset=-2 / threads=12 / lookahead_threads=1 / sliced_threads=0 / nr=0 / decimate=0 / interlaced=0 / bluray_compat=0 / constrained_intra=0 / bframes=3 / b_pyramid=2 / b_adapt=2 / b_bias=0 / direct=3 / weightb=1 / open_gop=0 / weightp=1 / keyint=240 / keyint_min=24 / scenecut=40 / intra_refresh=0 / rc_lookahead=40 / rc=crf / mbtree=1 / crf=15.0 / qcomp=0.60 / qpmin=7 / qpmax=20 / qpstep=4 / ip_ratio=1.40 / aq=1:1.00
Language : English
Color primaries : BT.709-5, BT.1361, IEC 61966-2-4, SMPTE RP177
Transfer characteristics : BT.709-5, BT.1361
Matrix coefficients : BT.709-5, BT.1361, IEC 61966-2-4 709, SMPTE RP177

Audio
ID : 2
Format : Vorbis
Format settings, Floor : 1
Codec ID : A_VORBIS
Duration : 2h 11mn
Bit rate : 224 Kbps
Channel(s) : 2 channels
Sampling rate : 48.0 KHz
Compression mode : Lossy
Stream size : 210 MiB (8%)
Writing library : aoTuV 20110424 (UTC 2011-04-24)
Language : Japanese
Дополнительная информация:
Первые два фильма являются сокращённой версией сериала.

Имя Мадока значит «спокойная, тихая» (дословно «круглая», ведь круг в буддизме – символ спокойствия и совершенства). Имена остальных героинь тоже значимые: Хомура – «пламя», Саяка – «яркая», Мами – «истинная красота», Хитоми – «зоркая». Имя магического зверька Кюбэя на слух имеет множество значений, от «шарик» до «дарящий». В официальной романизации названия сериала компания Aniplex использовала не английский язык, а латынь. Puella magi переводится как девочка-волшебница.

Мангака Умэ Аоки, автор «Хидамари» и создательница концептуального дизайна героинь «Мадоки», умышленно придала им сходство с персонажами «Солнечных набросков». Так, Мадока напоминает Юно, Саяка похожа на Нори, Мами – на Хиро, Хомура – на Нацумэ.
Раздачи: раз, два
‍>‍‍>‍ ОБСУЖДЕНИЕ ‍<‍‍<‍

batyrmastyr

post 23-Сен-2013 23:48

Quote

Gekijouban Toaru Majutsu no Index: Endymion no Kiseki
A Certain Magical Index The Movie: Miracle of Endymion
劇場版 とある魔術の禁書目録[インデックス] エンデュミオンの奇蹟


Тип: полнометражный фильм

pic
Жанры: магия, сверхспособности, сэйнэн, фантастика
Длительность: 1 эп. по 90 мин. + спецвыпуск на 12 минут.
Время выхода: 23.02.2013
Страна: Япония

Режиссёр: Нисикиори Хироси
Снято по: серии ранобэ
Автор оригинала: Камати Кадзума
Студия: J.C. Staff

Описание:
Действие происходит после окончания второго сезона. Прямо перед окончанием строительства космического лифта Камидзё и Индекс встречают певицу Алису - эспера нулевого уровня. Внезапно на них нападает отряд магов со Стайлом Магнусом, от которого они узнают что Алиса может стать причиной войны между сторонниками магии и науки.


В энциклопедиях:   AniDB  |  ANN  |  Wikipedia  |  World Art

  • Качество видео: (альтернатива: 1080p)
    • BDrip
    Видео:
    • AVC, 1280 * 720, 3300 кбит/с
    Аудио:
    • Японская | AAC, 2 канала, 160 кбит/с - оригинальная, в контейнере
    Субтитры:
Скриншоты:
pic pic pic pic pic pic pic pic pic pic pic pic pic pic pic pic
Параметры видео | аудио:
General
Unique ID : 191321274076198553770105025926750646785 (0x8FEF23174AE79D1B3CE114636895B201)
Complete name : /Users/batyrmastyr/Desktop/_VID/Gekijouban To Aru Majutsu no Index ~Endymion no Kiseki~ (BDrip 1280x720 x264 AAC).mkv
Format : Matroska
File size : 2.17 GiB
Duration : 1h 30mn
Overall bit rate : 3 439 Kbps
Writing application : HandBrake 0.9.9
Writing library : libmkv 0.6.5

Video
ID : 1
Format : AVC
Format/Info : Advanced Video Codec
Format profile : High@L4.0
Format settings, CABAC : Yes
Format settings, ReFrames : 6 frames
Codec ID : V_MPEG4/ISO/AVC
Duration : 1h 30mn
Width : 1 280 pixels
Height : 720 pixels
Display aspect ratio : 16:9
Frame rate : 23.976 fps
Color space : YUV
Chroma subsampling : 4:2:0
Bit depth : 8 bits
Scan type : Progressive
Writing library : x264 core 130 r2273 b3065e6
Encoding settings : cabac=1 / ref=6 / deblock=1:0:0 / analyse=0x3:0x133 / me=umh / subme=10 / psy=1 / psy_rd=1.00:0.00 / mixed_ref=1 / me_range=16 / chroma_me=1 / trellis=2 / 8x8dct=1 / cqm=0 / deadzone=21,11 / fast_pskip=1 / chroma_qp_offset=-2 / threads=12 / lookahead_threads=1 / sliced_threads=0 / nr=0 / decimate=0 / interlaced=0 / bluray_compat=0 / constrained_intra=0 / bframes=3 / b_pyramid=2 / b_adapt=2 / b_bias=0 / direct=3 / weightb=1 / open_gop=0 / weightp=1 / keyint=240 / keyint_min=24 / scenecut=40 / intra_refresh=0 / rc_lookahead=10 / rc=crf / mbtree=1 / crf=16.0 / qcomp=0.60 / qpmin=7 / qpmax=25 / qpstep=4 / ip_ratio=1.40 / aq=1:1.00
Language : English
Color primaries : BT.709-5, BT.1361, IEC 61966-2-4, SMPTE RP177
Transfer characteristics : BT.709-5, BT.1361
Matrix coefficients : BT.709-5, BT.1361, IEC 61966-2-4 709, SMPTE RP177

Audio
ID : 2
Format : AAC
Format/Info : Advanced Audio Codec
Format profile : LC
Codec ID : A_AAC
Duration : 1h 30mn
Channel(s) : 2 channels
Channel positions : Front: L R
Sampling rate : 48.0 KHz
Compression mode : Lossy
Language : Japanese

batyrmastyr

post 23-Сен-2013 23:31

Quote

Gekijouban Toaru Majutsu no Index: Endymion no Kiseki
A Certain Magical Index The Movie: Miracle of Endymion
劇場版 とある魔術の禁書目録[インデックス] エンデュミオンの奇蹟


Тип: полнометражный фильм

pic
Жанры: магия, сверхспособности, сэйнэн, фантастика
Длительность: 1 эп. по 90 мин. + спецвыпуск на 12 минут.
Время выхода: 23.02.2013
Страна: Япония

Режиссёр: Нисикиори Хироси
Снято по: серии ранобэ
Автор оригинала: Камати Кадзума
Студия: J.C. Staff

Описание:
Действие происходит после окончания второго сезона. Прямо перед окончанием строительства космического лифта Камидзё и Индекс встречают певицу Алису - эспера нулевого уровня. Внезапно на них нападает отряд магов со Стайлом Магнусом, от которого они узнают что Алиса может стать причиной войны между сторонниками магии и науки.


В энциклопедиях:   AniDB  |  ANN  |  Wikipedia  |  World Art

  • Источник релиза: (альтернатива: 720p)
    • [ReinForce]
    Качество видео:
    • BDrip
    Видео:
    • AVC, 1920 * 1080, 11000 кбит/с
    Аудио:
    • Японская | FLAC, 2 канала - оригинальная, в контейнере
    • Японская | FLAC, 6 каналов - оригинальная, внешними файлами
    Субтитры:


Скриншоты:
pic pic pic pic pic pic pic pic pic pic pic pic pic pic pic pic
Параметры видео | аудио:
General
Unique ID : 307491573823556438336527660538189020663 (0xE754B9146377F1DE0404F66419BF7DF7)
Complete name : /Volumes/torr/2013/[ReinForce] Gekijouban To Aru Majutsu no Index ~Endymion no Kiseki~ (BDrip 1920x1080 x264 FLAC)/[ReinForce] Gekijouban To Aru Majutsu no Index ~Endymion no Kiseki~ (BDrip 1920x1080 x264 FLAC).mkv
Format : Matroska
File size : 7.24 GiB
Duration : 1h 30mn
Overall bit rate : 11.5 Mbps
Movie name : [ReinForce] Gekijouban To Aru Majutsu no Index ~Endymion no Kiseki~ (BDrip 1920x1080 x264 FLAC)
Encoded date : UTC 2013-09-09 20:22:48
Writing application : mkvmerge v5.0.1 ('Es ist Sommer') built on Nov 21 2012 00:36:52
Writing library : libebml v1.2.2 + libmatroska v1.3.0

Video
ID : 1
Format : AVC
Format/Info : Advanced Video Codec
Format profile : High@L4.0
Format settings, CABAC : Yes
Format settings, ReFrames : 4 frames
Muxing mode : Header stripping
Codec ID : V_MPEG4/ISO/AVC
Duration : 1h 30mn
Width : 1 920 pixels
Height : 1 080 pixels
Display aspect ratio : 16:9
Frame rate : 23.976 fps
Color space : YUV
Chroma subsampling : 4:2:0
Bit depth : 8 bits
Scan type : Progressive
Writing library : x264 core 120
Encoding settings : cabac=1 / ref=4 / deblock=1:-2:-2 / analyse=0x3:0x113 / me=umh / subme=9 / psy=1 / psy_rd=0.70:0.00 / mixed_ref=0 / me_range=32 / chroma_me=1 / trellis=2 / 8x8dct=1 / cqm=0 / deadzone=21,11 / fast_pskip=1 / chroma_qp_offset=-2 / threads=16 / sliced_threads=0 / nr=0 / decimate=1 / interlaced=0 / bluray_compat=0 / constrained_intra=0 / bframes=9 / b_pyramid=2 / b_adapt=2 / b_bias=0 / direct=3 / weightb=1 / open_gop=0 / weightp=2 / keyint=250 / keyint_min=23 / scenecut=40 / intra_refresh=0 / rc_lookahead=40 / rc=crf / mbtree=1 / crf=14.0 / qcomp=0.70 / qpmin=10 / qpmax=20 / qpstep=4 / ip_ratio=1.40 / aq=1:1.00

Audio
ID : 2
Format : FLAC
Format/Info : Free Lossless Audio Codec
Codec ID : A_FLAC
Duration : 1h 30mn
Bit rate mode : Variable
Channel(s) : 2 channels
Sampling rate : 48.0 KHz
Bit depth : 16 bits
Writing library : Lavf54.29.104
Language : Japanese

batyrmastyr

post 13-Авг-2013 22:31

Quote

Gekijouban Fairy Tail: Houou no Miko
Сказка о Хвосте Феи. Жрица Жар-птицы
劇場版 FAIRY TAIL 鳳凰の巫女


Тип: полнометражный фильм

pic
Жанры: боевик, комедия, магия, сёнэн, фэнтези
Длительность: 1 эп. по 85 мин. + 15 минут пролога.
Время выхода: 18.08.2012
Страна: Япония

Режиссёр: Фудзимори Масая
Снято по: манге Fairy Tail
Автор оригинала: Масима Хиро
Студия: A-1 Pictures Inc.

Описание:
Долгожданная полнометражная экранизация знаменитой приключенческой саги. Перед гильдией «Хвост Феи» неведомо откуда появляется потерявшая память девушка. Всё, что она помнит – своё имя и свою миссию. Загадочная Агния во что бы то ни стало должна куда-то доставить два жар-камня. В них сокрыта разрушительная сила, способная полностью уничтожить мир. Так что Люси, Нацу вместе с остальными членами гильдии в очередной раз оказываются втянуты в серьёзную заварушку… (LlnX)


В энциклопедиях:   AniDB  |  World Art  |  ANN  |  Wikipedia

    Качество видео:
    • BDrip
    Видео:
    • AVC, 1280 * 720, 2700 кбит/с
    Аудио:
    • Японская | AAC, 2 канала, 160 кбит/с - оригинальная, в контейнере
    • Русская | AAC, 2 канала - одноголосая, внешними файлами - [Persona99]
    • Русская | AC-3, 2 канала - двухголосая, внешними файлами - [Dajana & sad_kit]
    Субтитры:
    • Русские - внешними файлами (во 2-м посте) - [Fratelli & Timecraft & BW] - Мария Гостюхина, Jenia aka Zub, Blazing Wizard, Bel-chan
    • Русские - внешними файлами (во 2-м посте) - [Aragami] - DARK-Silver, Muraki, mac
Скриншоты:
pic pic pic pic pic pic pic pic pic pic pic pic pic
Параметры видео | аудио:
General
Unique ID : 187288003379177045760174920984768050986 (0x8CE65B7E1FAD2F9122CB52FD14DC772A)
Complete name : /Volumes/Torrents/_2012/Gekijouban Fairy Tail ~Houou no Miko~ [2012, BDrip, 720p]/Gekijouban Fairy Tail ~Houou no Miko~ (BDRip 1280x720 x264 AAC).mkv
Format : Matroska
File size : 1.74 GiB
Duration : 1h 26mn
Overall bit rate : 2 897 Kbps
Writing application : HandBrake 0.9.9
Writing library : libmkv 0.6.5

Video
ID : 1
Format : AVC
Format/Info : Advanced Video Codec
Format profile : High@L4.0
Format settings, CABAC : Yes
Format settings, ReFrames : 6 frames
Codec ID : V_MPEG4/ISO/AVC
Duration : 1h 26mn
Width : 1 280 pixels
Height : 720 pixels
Display aspect ratio : 16:9
Frame rate : 23.976 fps
Color space : YUV
Chroma subsampling : 4:2:0
Bit depth : 8 bits
Scan type : Progressive
Writing library : x264 core 130 r2273 b3065e6
Encoding settings : cabac=1 / ref=6 / deblock=1:0:0 / analyse=0x3:0x133 / me=umh / subme=10 / psy=1 / psy_rd=1.00:0.00 / mixed_ref=1 / me_range=16 / chroma_me=1 / trellis=2 / 8x8dct=1 / cqm=0 / deadzone=21,11 / fast_pskip=1 / chroma_qp_offset=-2 / threads=12 / lookahead_threads=1 / sliced_threads=0 / nr=0 / decimate=0 / interlaced=0 / bluray_compat=0 / constrained_intra=0 / bframes=3 / b_pyramid=2 / b_adapt=2 / b_bias=0 / direct=3 / weightb=1 / open_gop=0 / weightp=1 / keyint=240 / keyint_min=24 / scenecut=40 / intra_refresh=0 / rc_lookahead=10 / rc=crf / mbtree=1 / crf=16.0 / qcomp=0.60 / qpmin=7 / qpmax=25 / qpstep=4 / ip_ratio=1.40 / aq=1:1.00
Language : English
Color primaries : BT.709-5, BT.1361, IEC 61966-2-4, SMPTE RP177
Transfer characteristics : BT.709-5, BT.1361
Matrix coefficients : BT.709-5, BT.1361, IEC 61966-2-4 709, SMPTE RP177

Audio
ID : 2
Format : AAC
Format/Info : Advanced Audio Codec
Format profile : LC
Codec ID : A_AAC
Duration : 1h 26mn
Channel(s) : 2 channels
Channel positions : Front: L R
Sampling rate : 48.0 KHz
Compression mode : Lossy
Language : Japanese
Fairy Tail на трекере

batyrmastyr

post 17-Июл-2013 22:18

Quote

Gekijouban Fairy Tail: Houou no Miko
Сказка о Хвосте Феи. Жрица Жар-птицы
劇場版 FAIRY TAIL 鳳凰の巫女


Тип: полнометражный фильм

pic
Жанры: боевик, комедия, магия, сёнэн, фэнтези
Длительность: 1 эп. по 85 мин. + 15 минут пролога.
Время выхода: 18.08.2012
Страна: Япония

Режиссёр: Фудзимори Масая
Снято по: манге Fairy Tail
Автор оригинала: Масима Хиро
Студия: A-1 Pictures Inc.

Описание:
Долгожданная полнометражная экранизация знаменитой приключенческой саги. Перед гильдией «Хвост Феи» неведомо откуда появляется потерявшая память девушка. Всё, что она помнит – своё имя и свою миссию. Загадочная Агния во что бы то ни стало должна куда-то доставить два жар-камня. В них сокрыта разрушительная сила, способная полностью уничтожить мир. Так что Люси, Нацу вместе с остальными членами гильдии в очередной раз оказываются втянуты в серьёзную заварушку… (LlnX)


В энциклопедиях:   AniDB  |  World Art  |  ANN  |  Wikipedia

  • Источник релиза:
    • [ReinForce]
    Качество видео:
    • BDrip
    Видео:
    • AVC, 1920 * 1080, 15500 кбит/с
    Аудио:
    • Японская | FLAC, 2 канала - оригинальная, в контейнере
    • Японская | FLAC, 6 каналов - оригинальная, внешними файлами
    • Русская | AAC, 2 канала - одноголосая, внешними файлами - [Persona99]
    • Русская | AC-3, 2 канала - двухголосая, внешними файлами - [Dajana & sad_kit]
    Субтитры:
    • Русские - внешними файлами (во 2-м посте) - [Fratelli & Timecraft & BW] - Мария Гостюхина, Jenia aka Zub, Blazing Wizard, Bel-chan
    • Русские - внешними файлами (во 2-м посте) - [Aragami] - DARK-Silver, Muraki, mac
Скриншоты:
pic pic pic pic pic pic pic pic pic pic pic pic pic pic pic pic
Параметры видео | аудио:
General
Unique ID : 300358334050353120238689255900843651639 (0xE1F6E934A25A01011D77C848D418B237)
Complete name : /Volumes/Torrents/_2012/Gekijouban Fairy Tail ~Houou no Miko~ [BDrip, 1080p]/[ReinForce] Gekijouban Fairy Tail ~Houou no Miko~ (BDRip 1920x1080 x264 FLAC).mkv
Format : Matroska
File size : 9.67 GiB
Duration : 1h 26mn
Overall bit rate : 16.1 Mbps
Movie name : [ReinForce] Gekijouban Fairy Tail ~Houou no Miko~ (BDRip 1920x1080 x264 FLAC)
Encoded date : UTC 2013-05-30 17:41:15
Writing application : mkvmerge v5.0.1 ('Es ist Sommer') built on Nov 21 2012 00:36:52
Writing library : libebml v1.2.2 + libmatroska v1.3.0

Video
ID : 1
Format : AVC
Format/Info : Advanced Video Codec
Format profile : High@L4.0
Format settings, CABAC : Yes
Format settings, ReFrames : 4 frames
Muxing mode : Header stripping
Codec ID : V_MPEG4/ISO/AVC
Duration : 1h 26mn
Width : 1 920 pixels
Height : 1 080 pixels
Display aspect ratio : 16:9
Frame rate : 23.976 fps
Color space : YUV
Chroma subsampling : 4:2:0
Bit depth : 8 bits
Scan type : Progressive
Writing library : x264 core 120
Encoding settings : cabac=1 / ref=4 / deblock=1:-2:-2 / analyse=0x3:0x113 / me=umh / subme=9 / psy=1 / psy_rd=0.70:0.00 / mixed_ref=0 / me_range=32 / chroma_me=1 / trellis=2 / 8x8dct=1 / cqm=0 / deadzone=21,11 / fast_pskip=1 / chroma_qp_offset=-2 / threads=8 / sliced_threads=0 / nr=0 / decimate=1 / interlaced=0 / bluray_compat=0 / constrained_intra=0 / bframes=9 / b_pyramid=2 / b_adapt=2 / b_bias=0 / direct=3 / weightb=1 / open_gop=0 / weightp=2 / keyint=250 / keyint_min=23 / scenecut=40 / intra_refresh=0 / rc_lookahead=40 / rc=crf / mbtree=1 / crf=14.0 / qcomp=0.70 / qpmin=10 / qpmax=20 / qpstep=4 / ip_ratio=1.40 / aq=1:1.00

Audio
ID : 2
Format : FLAC
Format/Info : Free Lossless Audio Codec
Codec ID : A_FLAC
Duration : 1h 26mn
Bit rate mode : Variable
Channel(s) : 2 channels
Sampling rate : 48.0 KHz
Bit depth : 16 bits
Writing library : Lavf53.32.100
Language : Japanese
Fairy Tail на трекере

batyrmastyr

post 29-Июн-2013 22:31

Quote

Kotonoha no Niwa
The Garden of Words
言の葉の庭


Тип: полнометражный фильм

pic
Жанры: взросление, драма, романтика
Длительность: 1 эп. по 45 мин.
Время выхода: 31.05.2013
Страна: Япония

Режиссёр: Макото Синкай
Автор оригинала: Макото Синкай
Композитор: Кашива Дайске
Студия: CoMix Wave Films

Описание:
Такао Акизуки, мечтает стать знаменитым дизайнером обуви. Прогуляв школу, Такао делает наброски моделей в очаровательном японском садике, там он видит загадочную девушку. Не договариваясь заранее, они начинают видеться снова и снова — и только по дождливым дням. Отношения развиваются, и они открывают друг другу свои сердца, чувства становятся всё глубже. Но вот-вот сезон дождей приблизится к концу. Что же ждёт наших героев? © Википедия


В энциклопедиях:   AniDB  |  ANN  |  World Art  |  [url=http://ru.wikipedia.org/wiki/Сад_слов]Wikipedia[/url]

  • Качество видео:
    • BDrip
    Видео:
    • AVC, 1280 * 720, 3600 кбит/с
    Аудио:
    • Японская | AAC, 2 канала, 160 кбит/с - оригинальная, в контейнере
    Субтитры:

Альтернативная раздача: [BDrip, 720p]

Скриншоты:
pic pic pic pic pic pic pic pic pic pic pic pic pic pic pic
Параметры видео | аудио:
General
Unique ID : 145050510096341017407599137036437676364 (0x6D1FB64B286C7CF2A42979C6B241E14C)
Complete name : /Volumes/torr/2013/Kotonoha no Niwa [2013, BDRip 720p]/Kotonoha no Niwa (BDRip 1280x720 x264 AAC).mkv
Format : Matroska
File size : 1.20 GiB
Duration : 45mn 51s
Overall bit rate : 3 743 Kbps
Writing application : HandBrake 0.9.9
Writing library : libmkv 0.6.5

Video
ID : 1
Format : AVC
Format/Info : Advanced Video Codec
Format profile : High@L4.0
Format settings, CABAC : Yes
Format settings, ReFrames : 6 frames
Codec ID : V_MPEG4/ISO/AVC
Duration : 45mn 51s
Width : 1 280 pixels
Height : 720 pixels
Display aspect ratio : 16:9
Frame rate : 23.976 fps
Color space : YUV
Chroma subsampling : 4:2:0
Bit depth : 8 bits
Scan type : Progressive
Writing library : x264 core 130 r2273 b3065e6
Encoding settings : cabac=1 / ref=6 / deblock=1:0:0 / analyse=0x3:0x133 / me=umh / subme=10 / psy=1 / psy_rd=1.00:0.00 / mixed_ref=1 / me_range=16 / chroma_me=1 / trellis=2 / 8x8dct=1 / cqm=0 / deadzone=21,11 / fast_pskip=1 / chroma_qp_offset=-2 / threads=12 / lookahead_threads=1 / sliced_threads=0 / nr=0 / decimate=0 / interlaced=0 / bluray_compat=0 / constrained_intra=0 / bframes=3 / b_pyramid=2 / b_adapt=2 / b_bias=0 / direct=3 / weightb=1 / open_gop=0 / weightp=1 / keyint=240 / keyint_min=24 / scenecut=40 / intra_refresh=0 / rc_lookahead=10 / rc=crf / mbtree=1 / crf=16.0 / qcomp=0.60 / qpmin=7 / qpmax=25 / qpstep=4 / ip_ratio=1.40 / aq=1:1.00
Language : English
Color primaries : BT.709-5, BT.1361, IEC 61966-2-4, SMPTE RP177
Transfer characteristics : BT.709-5, BT.1361
Matrix coefficients : BT.709-5, BT.1361, IEC 61966-2-4 709, SMPTE RP177

Audio
ID : 2
Format : AAC
Format/Info : Advanced Audio Codec
Format profile : LC
Codec ID : A_AAC
Duration : 45mn 51s
Channel(s) : 2 channels
Channel positions : Front: L R
Sampling rate : 48.0 KHz
Compression mode : Lossy
Language : Japanese

batyrmastyr

post 29-Июн-2013 22:04

Quote

Kotonoha no Niwa
The Garden of Words
言の葉の庭


Тип: полнометражный фильм

pic
Жанры: взросление, драма, романтика
Длительность: 1 эп. по 45 мин.
Время выхода: 31.05.2013
Страна: Япония

Режиссёр: Макото Синкай
Автор оригинала: Макото Синкай
Композитор: Кашива Дайске
Студия: CoMix Wave Films

Описание:
Такао Акизуки, мечтает стать знаменитым дизайнером обуви. Прогуляв школу, Такао делает наброски моделей в очаровательном японском садике, там он видит загадочную девушку. Не договариваясь заранее, они начинают видеться снова и снова — и только по дождливым дням. Отношения развиваются, и они открывают друг другу свои сердца, чувства становятся всё глубже. Но вот-вот сезон дождей приблизится к концу. Что же ждёт наших героев? © Википедия


В энциклопедиях:   AniDB  |  ANN  |  World Art  |  [url=http://ru.wikipedia.org/wiki/Сад_слов]Wikipedia[/url]

  • Источник релиза:
    • [ReinForce]
    Качество видео:
    • BDrip
    Видео:
    • AVC, 1920 * 1080, 12 100 кбит/с
    Аудио:
    • Японская | FLAC, 2 канала - оригинальная, в контейнере
    • Японская | FLAC, 6 каналов - оригинальная, внешними файлами
    Субтитры:

Альтернативная раздача: [BDrip, 720p]

Скриншоты:
pic pic pic pic pic pic pic pic pic pic pic pic pic pic pic
Параметры видео | аудио:
General
Unique ID : 52672993397485834661115247330763489769 (0x27A07314092DEA4049748D1CBAEC41E9)
Complete name : /Volumes/torr/2013/Kotonoha no Niwa [2013, BDRip 1080p]/[ReinForce] Kotonoha no Niwa (BDRip 1920x1080 x264 FLAC).mkv
Format : Matroska
File size : 4.09 GiB
Duration : 45mn 51s
Overall bit rate : 12.8 Mbps
Movie name : [ReinForce] Kotonoha no Niwa (BDRip 1920x1080 x264 FLAC)
Encoded date : UTC 2013-06-08 03:31:10
Writing application : mkvmerge v5.0.1 ('Es ist Sommer') built on Nov 21 2012 00:36:52
Writing library : libebml v1.2.2 + libmatroska v1.3.0

Video
ID : 1
Format : AVC
Format/Info : Advanced Video Codec
Format profile : High@L4.0
Format settings, CABAC : Yes
Format settings, ReFrames : 4 frames
Muxing mode : Header stripping
Codec ID : V_MPEG4/ISO/AVC
Duration : 45mn 51s
Width : 1 920 pixels
Height : 1 080 pixels
Display aspect ratio : 16:9
Frame rate : 23.976 fps
Color space : YUV
Chroma subsampling : 4:2:0
Bit depth : 8 bits
Scan type : Progressive
Writing library : x264 core 120
Encoding settings : cabac=1 / ref=4 / deblock=1:-2:-2 / analyse=0x3:0x113 / me=umh / subme=9 / psy=1 / psy_rd=0.70:0.00 / mixed_ref=0 / me_range=32 / chroma_me=1 / trellis=2 / 8x8dct=1 / cqm=0 / deadzone=21,11 / fast_pskip=1 / chroma_qp_offset=-2 / threads=16 / sliced_threads=0 / nr=0 / decimate=1 / interlaced=0 / bluray_compat=0 / constrained_intra=0 / bframes=9 / b_pyramid=2 / b_adapt=2 / b_bias=0 / direct=3 / weightb=1 / open_gop=0 / weightp=2 / keyint=250 / keyint_min=23 / scenecut=40 / intra_refresh=0 / rc_lookahead=40 / rc=crf / mbtree=1 / crf=14.0 / qcomp=0.70 / qpmin=10 / qpmax=20 / qpstep=4 / ip_ratio=1.40 / aq=1:1.00

Audio
ID : 2
Format : FLAC
Format/Info : Free Lossless Audio Codec
Codec ID : A_FLAC
Duration : 45mn 51s
Bit rate mode : Variable
Channel(s) : 2 channels
Sampling rate : 48.0 KHz
Bit depth : 16 bits
Writing library : Lavf53.32.100
Language : Japanese

batyrmastyr

post 06-Апр-2013 23:15

Quote

Little Witch Academia
Академия ведьмочек
リトル・ウィッチ・アカデミア


Тип: короткометражный фильм

pic
Длительность: 1 эп. по 25 мин.
Время выхода: 02.03.2013
Страна: Япония

Режиссёр: Yoshinari You
Студия: Trigger

Описание:
В мире, преисполненном магией, девочка Акко из обычной семьи попадает на шоу магических представлений Блестящей Шариот, где творятся настоящие чудеса. Вдохновленная великой волшебницей, Акко поступает в школу магии «Luna Nova», а как всем известно, представление и учеба вовсе не одно и тоже. Рутинные будни, слабая успеваемость, да еще и кумира нашей девочки не особо жалуют в магическом сообществе – все это угнетает Акко. Все бы так и оставалось повседневностью, если бы в один прекрасный день не случилось неожиданное… (c) exliky at world-art.ru


В энциклопедиях:   World Art  |  AniDB  |  ANN  |  Wikipedia

  • Источник релиза:
    • [gg]
    Качество видео:
    • BDrip
    Видео:
    • AVC 10bit, 1280 * 720, 2400 кбит/с
    Аудио:
    • Японская | AAC, 2 канала, 298 кбит/с - оригинальная, в контейнере
    Субтитры:
    • Английские - отключаемые, встроенные - [gg]
    • Русские - внешними файлами - [GMC] - Schum


Скриншоты:
pic pic pic pic pic pic pic pic pic pic pic pic
Параметры видео | аудио:
General
Unique ID : 247221384111783363429431536685743729191 (0xB9FD1B4DC4404E6391BC07A083C1EA27)
Complete name : /Volumes/Torrents/_2013/Little Witch Academia [2013, BDrip, 720p]/[gg]_Anime_Mirai_2013_-_Little_Witch_Academia_(BD,720p)_[9E6DE408].mkv
Format : Matroska
File size : 503 MiB
Duration : 26mn 12s
Overall bit rate : 2 685 Kbps
Encoded date : UTC 2013-03-31 20:00:59
Writing application : mkvmerge v5.0.1 ('Es ist Sommer') built on Oct 9 2011 11:55:43
Writing library : libebml v1.2.2 + libmatroska v1.3.0
Cover : Yes / Yes

Video
ID : 1
Format : AVC
Format/Info : Advanced Video Codec
Format profile : High 10@L4.0
Format settings, CABAC : Yes
Format settings, ReFrames : 9 frames
Muxing mode : Header stripping
Codec ID : V_MPEG4/ISO/AVC
Duration : 26mn 12s
Width : 1 280 pixels
Height : 720 pixels
Display aspect ratio : 16:9
Frame rate : 23.976 fps
Color space : YUV
Chroma subsampling : 4:2:0
Bit depth : 10 bits
Scan type : Progressive
Writing library : x264 core 125 r2200+677M 3a754e7
Encoding settings : cabac=1 / ref=9 / deblock=1:-1:-1 / analyse=0x3:0x133 / me=umh / subme=10 / psy=1 / fade_compensate=0.00 / psy_rd=0.60:0.10 / mixed_ref=1 / me_range=24 / chroma_me=1 / trellis=2 / 8x8dct=1 / cqm=0 / deadzone=21,11 / fast_pskip=1 / chroma_qp_offset=-3 / threads=18 / lookahead_threads=3 / sliced_threads=0 / nr=0 / decimate=1 / interlaced=0 / bluray_compat=0 / constrained_intra=0 / fgo=0 / bframes=12 / b_pyramid=2 / b_adapt=2 / b_bias=0 / direct=3 / weightb=1 / open_gop=0 / weightp=2 / keyint=250 / keyint_min=23 / scenecut=40 / intra_refresh=0 / rc_lookahead=60 / rc=crf / mbtree=1 / crf=16.0000 / qcomp=0.60 / qpmin=0 / qpmax=81 / qpstep=4 / ip_ratio=1.40 / aq=3:0.80
Language : English

Audio
ID : 2
Format : AAC
Format/Info : Advanced Audio Codec
Format profile : LC
Codec ID : A_AAC
Duration : 26mn 12s
Channel(s) : 2 channels
Channel positions : Front: L R
Sampling rate : 48.0 KHz
Compression mode : Lossy

Text
ID : 3
Format : ASS
Codec ID : S_TEXT/ASS
Codec ID/Info : Advanced Sub Station Alpha
Compression mode : Lossless
Title : ass
Language : English

Menu #1
00:00:00.033 : en:Episode
00:24:36.990 : en:ED

Menu #2
00:00:00.054 : en:00:00:00.054
Дополнительная информация:
Данная короткометражка сделана в рамках проекта обучения начинающих аниматоров Anime Mirai.

aalleex

post 27-Мар-2013 22:04

Quote

Ookami Kodomo no Ame to Yuki
Волчьи дети Амэ и Юки )
Оригинальное название:おおかみこどもの雨と雪

pic
Тип: полнометражный фильм
Жанр: драма
Время выхода: 2012
Режиссер: Хосода Мамору
Автор оригинала: Хосода Мамору
Длительность: 117 мин.

Качество видео: BDRip
Контейнер: MKV
Видео: x264, 1920x1080, 23.976 fps, 7000 kbps, 10 bits
Аудио 1: RU VO AAC, 2.0, 48000 Hz, 192 kbps
Аудио 2: JP FLAC, 2.0, 48000 Hz, 640 kbps
Субтитры 1: RU soft
Авторы и участники:
Рип: Н/Д
Озвучка: NASTR
Субтитры: Tanner
Описание: Юки и Амэ — только с виду обычные дети, которым должны быть нипочем тяготы окружающего мира. Когда погибает их отец, последний представитель древнего рода оборотней, их матери — обыкновенной девушке, когда-то влюбившейся в человека, оказавшегося волком — приходится переехать подальше от большого города и начать все сначала.
Ссылка на AniDB
Ссылка на World Art

Личная оценка: 10 - мне очень понравилось
Скриншоты
picpicpicpicpicpic

aalleex

post 15-Мар-2013 21:40

Quote

Ookami Kodomo no Ame to Yuki
Волчьи дети Амэ и Юки )
Оригинальное название:おおかみこどもの雨と雪

pic
Тип: полнометражный фильм
Жанр: драма
Время выхода: 2012
Режиссер: Хосода Мамору
Автор оригинала: Хосода Мамору
Длительность: 117 мин.

Качество видео: BDRip
Размер кадра: 1920x1080
Техданные:
Видео: MPEG4 Video, 1920x1080, 23.976fps, 5603 Kbps
Аудио: - JP: FLAC, 48000Hz, 6.0ch;
Рипгруппа: [Zero-Raws]
Наличие Хардсабов: Нет
Перевод: Субтитры
Субтитры: Tanner
Описание: Юки и Амэ — только с виду обычные дети, которым должны быть нипочем тяготы окружающего мира. Когда погибает их отец, последний представитель древнего рода оборотней, их матери — обыкновенной девушке, когда-то влюбившейся в человека, оказавшегося волком — приходится переехать подальше от большого города и начать все сначала.
Ссылка на AniDB
Ссылка на World Art

Личная оценка: 10 - мне очень понравилось
Скриншоты
picpicpicpicpicpic

batyrmastyr

post 23-Янв-2013 21:57

Quote

.hack//Sekai no Mukou ni
.hack//Beyond the World
.хак//По другую сторону Мира
ドット ハック セカイの向こうに


Тип: полнометражный фильм

pic
Жанры: приключения, фэнтези, виртуальная реальность,
Длительность: 1 эп. по 110 мин.
Год выхода: 21.01.2012
Страна: Япония

Режиссёр: Мацуяма Хироси (Hiroshi Matsuyama)
Сценарист: Ито Кадзунори (Kazunori Ito)
Студия: CyberConnect2 sai

Описание:
Из-за нелюбви, едва ли не боязни, дедушки перед техническими новшествами, Сора Юки ни разу не играла с друзьями в "The World". Но случайно застукав деда за игрой, она начинает первые, робкие шаги по "Миру" в доброй компании и приходит он него в полный восторг. Однако вскоре она становится свидетелем странного события: какую-то девушку, без особого успеха, атакует туманное существо. Играючи отбиваясь, незнакомка даёт Соре кубик, который втягивается в её виртуальное тело. Вскоре после этого, некоторые игроки начинают впадать в кому.


В энциклопедиях:   World Art  |  Wikipedia  |  AniDB  |  ANN

  • Качество видео:
    • BDrip
    Видео:
    • AVC, 1280*544, 2700 кбит/с
    Аудио:
    • Японская | AAC, 2 канала, 128 кбит/с - оригинальная, в контейнере
    • Японская | AAC, 6 каналов, 640 кбит/с - оригинальная, в контейнере
    Субтитры:

.hack// на трекере
Скриншоты:
pic pic pic pic pic pic pic pic pic pic pic
Параметры видео | аудио:
General
Unique ID : 54521812195777176026086444397739747083 (0x290484E1F804196C558346603341A70B)
Complete name : /Volumes/Torrents/_2012/hack - Sekai no Mukou ni [2012][BDrip, 720p]/dot hack ~Sekai no Mukou ni~ Movie (BDRip 1280x544 h264 2xAAC).mkv
Format : Matroska
File size : 2.66 GiB
Duration : 1h 51mn
Overall bit rate : 3 417 Kbps
Writing application : HandBrake 0.9.6
Writing library : libmkv 0.6.5

Video
ID : 1
Format : AVC
Format/Info : Advanced Video Codec
Format profile : High@L4.0
Format settings, CABAC : Yes
Format settings, ReFrames : 11 frames
Codec ID : V_MPEG4/ISO/AVC
Duration : 1h 51mn
Width : 1 280 pixels
Height : 544 pixels
Display aspect ratio : 2.35:1
Frame rate mode : Variable
Frame rate : 23.976 fps
Color space : YUV
Chroma subsampling : 4:2:0
Bit depth : 8 bits
Scan type : Progressive
Writing library : x264 core 120
Encoding settings : cabac=1 / ref=12 / deblock=1:0:0 / analyse=0x3:0x133 / me=hex / subme=9 / psy=1 / psy_rd=1.00:0.00 / mixed_ref=1 / me_range=16 / chroma_me=1 / trellis=1 / 8x8dct=1 / cqm=0 / deadzone=21,11 / fast_pskip=1 / chroma_qp_offset=-2 / threads=9 / sliced_threads=0 / nr=0 / decimate=0 / interlaced=0 / bluray_compat=0 / constrained_intra=0 / bframes=4 / b_pyramid=1 / b_adapt=1 / b_bias=0 / direct=1 / weightb=1 / open_gop=0 / weightp=2 / keyint=240 / keyint_min=24 / scenecut=40 / intra_refresh=0 / rc_lookahead=40 / rc=crf / mbtree=1 / crf=16.0 / qcomp=0.60 / qpmin=3 / qpmax=69 / qpstep=4 / ip_ratio=1.40 / aq=1:1.00
Language : English
Color primaries : BT.709-5, BT.1361, IEC 61966-2-4, SMPTE RP177
Transfer characteristics : BT.709-5, BT.1361
Matrix coefficients : BT.709-5, BT.1361, IEC 61966-2-4 709, SMPTE RP177

Audio #1
ID : 2
Format : AAC
Format/Info : Advanced Audio Codec
Format profile : LC
Codec ID : A_AAC
Duration : 1h 51mn
Channel(s) : 2 channels
Channel positions : Front: L R
Sampling rate : 48.0 KHz
Compression mode : Lossy
Language : Japanese

Audio #2
ID : 3
Format : AAC
Format/Info : Advanced Audio Codec
Format profile : LC
Codec ID : A_AAC
Duration : 1h 51mn
Channel(s) : 6 channels
Channel positions : Front: L C R, Side: L R, LFE
Sampling rate : 48.0 KHz
Compression mode : Lossy
Language : Japanese

batyrmastyr

post 10-Янв-2013 22:10

Quote

.hack//Sekai no Mukou ni
.hack//Beyond the World
.хак//По другую сторону Мира
ドット ハック セカイの向こうに


Тип: полнометражный фильм

pic
Жанры: приключения, фэнтези, виртуальная реальность,
Длительность: 1 эп. по 110 мин.
Год выхода: 21.01.2012
Страна: Япония

Режиссёр: Мацуяма Хироси (Hiroshi Matsuyama)
Сценарист: Ито Кадзунори (Kazunori Ito)
Студия: CyberConnect2 sai

Описание:
Из-за нелюбви, едва ли не боязни, дедушки перед техническими новшествами, Сора Юки ни разу не играла с друзьями в "The World". Но случайно застукав деда за игрой, она начинает первые, робкие шаги по "Миру" в доброй компании и приходит он него в полный восторг. Однако вскоре она становится свидетелем странного события: какую-то девушку, без особого успеха, атакует туманное существо. Играючи отбиваясь, незнакомка даёт Соре кубик, который втягивается в её виртуальное тело. Вскоре после этого, некоторые игроки начинают впадать в кому.


В энциклопедиях:   World Art  |  Wikipedia  |  AniDB  |  ANN

  • Источник релиза:
    • [HQR]
    Качество видео:
    • BDrip
    Видео:
    • AVC 10bit, 1920*804, 7500 кбит/с
    Аудио:
    • Японская | FLAC, 2 канала - оригинальная, в контейнере
    • Японская | TrueHD, 6 каналов - оригинальная, в контейнере
    Субтитры:

.hack// на трекере
Скриншоты:
pic pic pic pic pic pic pic pic pic pic pic pic pic
Параметры видео | аудио:
General
Unique ID : 206813824816970191008635160438282015814 (0x9B96E4D0EAD7F591ACC20D7389AE5446)
Complete name : /Volumes/Torrents/_temp/[HQR] .Hack ~Sekai no Mukou ni~ Movie (BDRip 1920x804 h264 Flac-TrueHD).mkv
Format : Matroska
File size : 7.01 GiB
Duration : 1h 51mn
Overall bit rate : 8 994 Kbps
Movie name : [HQR] .Hack ~Sekai no Mukou ni~ Movie [BDRip 1920x804 h264 Flac-TrueHD]
Encoded date : UTC 2012-10-25 21:35:23
Writing application : mkvmerge v5.2.0 ('I can't explain') built on Dec 18 2011 18:12:03
Writing library : libebml v1.2.3 + libmatroska v1.3.0

Video
ID : 1
Format : AVC
Format/Info : Advanced Video Codec
Format profile : High 10@L4.1
Format settings, CABAC : Yes
Format settings, ReFrames : 4 frames
Codec ID : V_MPEG4/ISO/AVC
Duration : 1h 51mn
Width : 1 920 pixels
Height : 804 pixels
Display aspect ratio : 2.35:1
Frame rate : 23.976 fps
Color space : YUV
Chroma subsampling : 4:2:0
Bit depth : 10 bits
Scan type : Progressive
Title : [HQR] .Hack ~Sekai no Mukou ni~ Movie
Writing library : x264 core 128 r2216 198a7ea
Encoding settings : cabac=1 / ref=4 / deblock=1:-3:-3 / analyse=0x3:0x133 / me=umh / subme=9 / psy=1 / psy_rd=0.90:0.15 / mixed_ref=1 / me_range=32 / chroma_me=1 / trellis=2 / 8x8dct=1 / cqm=0 / deadzone=21,11 / fast_pskip=1 / chroma_qp_offset=-3 / threads=4 / lookahead_threads=1 / sliced_threads=0 / nr=0 / decimate=0 / interlaced=0 / bluray_compat=0 / constrained_intra=0 / bframes=9 / b_pyramid=2 / b_adapt=2 / b_bias=0 / direct=3 / weightb=1 / open_gop=0 / weightp=2 / keyint=240 / keyint_min=24 / scenecut=40 / intra_refresh=0 / rc_lookahead=40 / rc=crf / mbtree=0 / crf=16.0 / qcomp=0.72 / qpmin=6 / qpmax=35 / qpstep=4 / vbv_maxrate=40000 / vbv_bufsize=62500 / crf_max=0.0 / nal_hrd=none / ip_ratio=1.40 / pb_ratio=1.30 / aq=1:0.85
Color primaries : BT.709-5, BT.1361, IEC 61966-2-4, SMPTE RP177
Transfer characteristics : BT.709-5, BT.1361
Matrix coefficients : BT.709-5, BT.1361, IEC 61966-2-4 709, SMPTE RP177

Audio #1
ID : 2
Format : FLAC
Format/Info : Free Lossless Audio Codec
Codec ID : A_FLAC
Duration : 1h 51mn
Bit rate mode : Variable
Channel(s) : 2 channels
Sampling rate : 48.0 KHz
Bit depth : 16 bits
Title : Original, 2ch, Flac
Writing library : libFLAC 1.2.1 (UTC 2007-09-17)
Language : Japanese

Audio #2
ID : 3
Format : TrueHD
Codec ID : A_TRUEHD
Duration : 1h 51mn
Bit rate mode : Variable
Maximum bit rate : 4 029 Kbps
Channel(s) : 6 channels
Channel positions : Front: L C R, Side: L R, LFE
Sampling rate : 48.0 KHz
Compression mode : Lossless
Title : Original, 6ch, TrueHD
Language : Japanese

Federal Marshal

post 03-Ноя-2012 21:13

Quote

Strike Witches Gekijouban
Штурмовые ведьмы (фильм)
ストライクウィッチーズ 劇場版


Тип: Movie

pic
Жанры: приключения, фантастика
Длительность: 95 мин.
Год выхода: 2012
Страна: Япония

Автор оригинала: Симада Фумиканэ
Студия: AIC

Описание:
Действие фильма происходит в 1945 году. Мияфудзи Йошика, переставшая быть Штурмовой Ведьмой, планирует стать врачом. Шизука Хаттори, одна из курсанток в Императорском флоте Фусо, доставляет сообщение: Йошика должна отправиться для обучения в Европу. © robert-g


В энциклопедиях:   Wikipedia  |  ANN  |  AniDB  |  World Art

  • Источник релиза:
  • Источник релиза:
    • [Zero-Raws]
    Качество видео:
    • BDrip
    Видео:
    • AVC, 1920x1080, ~2400 кбит/с
    Аудио:
    • Японская | FLAC 5.1 channels, 4608 кбит/с - оригинальная, в контейнере


    Субтитры:
    • Русские - внешними файлами (во 2-м посте) - [YakuSub Studio] - Amanri, Stan WarHammer, Faktoreal


Скриншоты:
pic pic pic
pic pic pic
pic pic pic
pic pic pic
pic pic pic
pic pic pic
pic pic pic
pic pic pic
pic pic pic

Черд, кажись скриншоты не по порядку Mad

Параметры видео | аудио:
Format : Matroska
File size : 4.62 GiB
Duration : 1h 34mn
Overall bit rate : 7 010 Kbps
Encoded date : UTC 2012-10-31 09:06:52
Writing application : mkvmerge v5.8.0 ('No Sleep / Pillow') built on Sep 2 2012 15:37:04
Writing library : libebml v1.2.3 + libmatroska v1.3.0

Video
ID : 1
Format : AVC
Format/Info : Advanced Video Codec
Format profile : High@L5.1
Format settings, CABAC : Yes
Format settings, ReFrames : 16 frames
Muxing mode : Container profile=Unknown@5.1
Codec ID : V_MPEG4/ISO/AVC
Duration : 1h 34mn
Width : 1 920 pixels
Height : 1 080 pixels
Display aspect ratio : 16:9
Frame rate : 23.976 fps
Color space : YUV
Chroma subsampling : 4:2:0
Bit depth : 8 bits
Scan type : Progressive
Writing library : x264 core 120 r2146+650 183470d
Encoding settings : cabac=1 / ref=16 / deblock=1:0:0 / analyse=0x3:0x133 / me=umh / subme=10 / psy=1 / fade_compensate=0.00 / psy_rd=1.00:0.00 / mixed_ref=1 / me_range=24 / chroma_me=1 / trellis=2 / 8x8dct=1 / cqm=0 / deadzone=21,11 / fast_pskip=1 / chroma_qp_offset=-2 / threads=20 / sliced_threads=0 / nr=0 / decimate=1 / interlaced=0 / bluray_compat=0 / constrained_intra=0 / fgo=0 / bframes=8 / b_pyramid=2 / b_adapt=2 / b_bias=0 / direct=3 / weightb=1 / open_gop=0 / weightp=2 / keyint=250 / keyint_min=23 / scenecut=40 / intra_refresh=0 / rc_lookahead=60 / rc=crf / mbtree=1 / crf=17.0 / qcomp=0.60 / qpmin=0 / qpmax=69 / qpstep=4 / ip_ratio=1.40 / aq=1:1.00
Language : English
Color primaries : BT.709-5, BT.1361, IEC 61966-2-4, SMPTE RP177
Transfer characteristics : BT.709-5, BT.1361
Matrix coefficients : BT.709-5, BT.1361, IEC 61966-2-4 709, SMPTE RP177

Audio
ID : 2
Format : FLAC
Format/Info : Free Lossless Audio Codec
Codec ID : A_FLAC
Duration : 1h 34mn
Bit rate mode : Variable
Channel(s) : 6 channels
Sampling rate : 48.0 KHz
Bit depth : 16 bits
Title : Japanese Audio
Writing library : libFLAC 1.2.1 (UTC 2007-09-17)
Language : Japanese

alias1923

post 30-Апр-2012 11:47

Quote

pic
Urusei Yatsura Movie 6 : Always My Darling
Those Obnoxious Aliens: Always My Darling
Несносные пришельцы фильм 6 : Навсегда мой любимый
うる星やつら いつだってマイ・ダーリン
Тип: Полнометражный фильм
Жанры: приключения, комедия, романтика, фантастика
Длительность: 77 мин.
Год выпуска: 1991
Страна: Япония

Режиссер: Ямада Кацухиса
Снято по: Urusei Yatsura
Автор оригинала: Румико Такахаси
Студия: Kitty Films

Описание: Система галактического глобального поиска информации вновь называет имя Атару. Но каков был запрос? И кому он понадобился?

В то же время, где-то на далекой планете, принцесса Люпика решает непростую задачу. Согласно традиции, ей пора "выбирать принца", а ни один из кандидатов не устраивает, ибо тот кто устраивает - вовсе даже не принц. Ах, если бы можно было не произносить эти "трудные слова", а заранее все гарантировать с помощью любовного эликсира… Говорят, он счастья не приносит, но как устоять пред искушением?


В энциклопедияхWorld Art  |  AniDB

Качество: DVDrip
Видео: AVC , 640х360 , 1 408 Kbps
Аудио: Японский | MP3 , 208 Kbps , 2 channels, 48.0 KHz

Наличие хардсаба: нет
Перевод: субтитры : RUS ( Внешние во втором посте )

Источник релиза: WWW.URUSEI-YATSURA.RU
Авторы субтитров: Tsubasa-Anime


Скринлист
pic
Скриншоты
pic
pic
pic
pic
pic
pic
pic
pic
pic
MediaInfo


General
Unique ID : 173035038934066994242661449892152247910 (0x822D56172CFA8779A09955B83A3C8666)
Complete name : D:\Urusei Yatsura\Urusei Yatsura Movie 6 - Always My Darling\Urusei Yatsura Movie 6 - Always My Darling.mkv
Format : Matroska
Format version : Version 1
File size : 992 MiB
Duration : 1h 17mn
Overall bit rate mode : Variable
Overall bit rate : 1 794 Kbps
Encoded date : UTC 2006-11-27 13:45:30
Writing application : mkvmerge v1.7.0 ('What Do You Take Me For') built on Apr 28 2006 17:20:19
Writing library : libebml v0.7.7 + libmatroska v0.8.0

Video
ID : 1
Format : AVC
Format/Info : Advanced Video Codec
Format profile : High@L5.1
Format settings, CABAC : Yes
Format settings, ReFrames : 2 frames
Codec ID : H264
Duration : 1h 17mn
Bit rate : 1 408 Kbps
Width : 640 pixels
Height : 480 pixels
Display aspect ratio : 4:3
Frame rate : 29.970 fps
Color space : YUV
Chroma subsampling : 4:2:0
Bit depth : 8 bits
Scan type : Progressive
Bits/(Pixel*Frame) : 0.153
Stream size : 742 MiB (75%)
Writing library : x264 core 50 svn-568
Encoding settings : cabac=1 / ref=1 / deblock=1:0:0 / analyse=0x3:0x113 / me=hex / subme=5 / brdo=0 / mixed_ref=0 / me_range=16 / chroma_me=1 / trellis=1 / 8x8dct=1 / cqm=0 / chroma_qp_offset=0 / slices=1 / nr=0 / decimate=1 / bframes=2 / b_pyramid=0 / b_adapt=1 / b_bias=0 / direct=2 / wpredb=1 / bime=0 / keyint=250 / keyint_min=25 / scenecut=40 / rc=2pass / bitrate=1408 / ratetol=1.0 / rceq='blurCplx^(1-qComp)' / qcomp=0.60 / qpmin=10 / qpmax=51 / qpstep=4 / cplxblur=20.0 / qblur=0.5 / ip_ratio=1.40 / pb_ratio=1.30
Language : English
Default : Yes
Forced : No

Audio #1
ID : 2
Format : Vorbis
Format settings, Floor : 1
Codec ID : A_VORBIS
Duration : 1h 17mn
Bit rate mode : Variable
Bit rate : 208 Kbps
Channel(s) : 2 channels
Sampling rate : 48.0 KHz
Compression mode : Lossy
Delay relative to video : -67ms
Stream size : 115 MiB (12%)
Writing library : libVorbis 1.0.1 (UTC 2003-09-09)
Language : Japanese
Default : Yes
Forced : No
Writing application : Made with BeSweet v1.5b30
Encoded_Application/Url : http://DSPguru.doom9.org

Audio #2
ID : 3
Format : Vorbis
Format settings, Floor : 1
Codec ID : A_VORBIS
Duration : 1h 17mn
Bit rate mode : Variable
Bit rate : 208 Kbps
Channel(s) : 2 channels
Sampling rate : 48.0 KHz
Compression mode : Lossy
Delay relative to video : -67ms
Stream size : 115 MiB (12%)
Writing library : libVorbis 1.0.1 (UTC 2003-09-09)
Language : English
Default : No
Forced : No
Writing application : Made with BeSweet v1.5b30
Encoded_Application/Url : http://DSPguru.doom9.org

Text #1
ID : 4
Format : SSA
Codec ID : S_TEXT/SSA
Codec ID/Info : Sub Station Alpha
Compression mode : Lossless
Language : English
Default : Yes
Forced : No

Text #2
ID : 5
Format : VobSub
Muxing mode : zlib
Codec ID : S_VOBSUB
Codec ID/Info : The same subtitle format used on DVDs
Language : English
Default : No
Forced : No
 

Текущее время: 24-Июл 19:35

Часовой пояс: GMT + 3

[  Execution time: 0.505 sec  |  MySQL: 0.933 sec (185%) in 7 queries  |  Mem: 160.15 KB / 1.11 MB / 1.06 MB  |  Load: 2.3 2.2 2.1  ]