Loading...
Error

Поиск

Параметры запроса
Ключевые слова

  

Поиск по автору

 

Вы можете использовать + (знак "плюс" написанный слитно перед словом: "+слово") чтобы определить слова, которые должны быть в результатах и - (знак "минус") для слов, которых не должно быть. Используйте * в качестве шаблона для частичного совпадения.

Форум:

Мои закачки
Время размещения:

 

Показывать результаты как:

 

Упорядочить по:

 

Результатов поиска: 1

Автор Сообщение

MasterM

post 12-Окт-2011 08:33

Quote

pic
C3
Cube×Cursed×Curious
C3 -シーキューブ-

Тип: TV
Жанры: комедия, этти
Длительность: ‍‍‍‍‍‍‍‍‍‍12эп., 25мин.
Год выпуска: 2011
Страна: Япония

Режиссер: Онума Син
Автор оригинала: Минасэ Хадзуки
Студия: Silver Link

Описание:
Отец-ученый, вечно пропадающий в экспедициях, обожает присылать сыну-старшекласснику по имени Харуаки Яти всякие диковинки. Причина не только в отцовской любви, ведь Яти-старший – исследователь тайного, а Яти-младший – природный экстрасенс, от которого «отскакивают» сглаз и порча. Да еще и дом Яти стоит в святом месте, где легче бороться с темными силами. Так что Харуаки не удивился очередной посылке в виде тяжеленного черного куба, который сразу же отправил в кладовую. Кто бы сомневался, что ночью куб превратится в милую синеволосую девочку, что в костюме Евы вылезет инспектировать хозяйский холодильник!

Ночная гостья представилась как Фиа (что значит «страх») и объяснила, что она – «орудие бед», инструмент наказания людей всеми видами страха и ужаса, то есть «страхом в кубе». Но так как у Фиа есть душа, то она отягощена тяжелым кармическим грузом, и единственный путь спасения – это искренняя благодарность и светлые чувства других людей. Харуаки, как добрый парень, да еще иммунный к любым проклятиям, решил поддержать новую знакомую и поселил ее у себя. Вот только бедный герой вскоре выяснил, что весьма многие из окружающих его милых девушек и красивых женщин – такие же «орудия». Какие тут светлые чувства, как жить-то теперь? Кришна, помоги! © Hollow, World Art


В энциклопедияхWorld Art  |  AniDB  |  ANN

Качество: HDTV
Видео: AVC, 1280x720, 1857 kbps (переменный)
Аудио: Японский | AAC, 2.0 ch, 159 kbps (переменный)

Наличие хардсаба: нет
Наличие цензуры: нет
Перевод: нет | русские субтитры тут

Источник релиза: [Leopard-Raws]


Скриншоты
pic pic pic
pic pic pic
pic pic pic
pic pic pic
MediaInfo
General
Complete name : [Leopard-Raws] C3 - 01 RAW (MX 1280x720 x264 AAC).mp4
Format : MPEG-4
Format profile : Base Media
Codec ID : isom
File size : 347 MiB
Duration : 23mn 59s
Overall bit rate : 2 020 Kbps
Encoded date : UTC 2011-09-30 22:58:15
Tagged date : UTC 2011-09-30 22:58:15

Video
ID : 1
Format : AVC
Format/Info : Advanced Video Codec
Format profile : High@L4.0
Format settings, CABAC : Yes
Format settings, ReFrames : 3 frames
Codec ID : avc1
Codec ID/Info : Advanced Video Coding
Duration : 23mn 59s
Bit rate mode : Variable
Bit rate : 1 857 Kbps
Maximum bit rate : 23.0 Mbps
Width : 1 280 pixels
Height : 720 pixels
Display aspect ratio : 16:9
Frame rate mode : Variable
Frame rate : 23.976 fps
Minimum frame rate : 23.976 fps
Maximum frame rate : 47.952 fps
Color space : YUV
Chroma subsampling : 4:2:0
Bit depth : 8 bits
Scan type : Progressive
Bits/(Pixel*Frame) : 0.084
Stream size : 319 MiB (92%)
Writing library : x264 core 75 r1246 5b3c89c
Encoding settings : cabac=1 / ref=3 / deblock=1:-2:-2 / analyse=0x3:0x133 / me=umh / subme=9 / psy=1 / psy_rd=0.5:0.0 / mixed_ref=1 / me_range=32 / chroma_me=1 / trellis=2 / 8x8dct=1 / cqm=0 / deadzone=21,11 / chroma_qp_offset=-2 / threads=6 / nr=0 / decimate=1 / mbaff=0 / bframes=2 / b_pyramid=0 / b_adapt=2 / b_bias=0 / direct=3 / wpredb=1 / keyint=240 / keyint_min=1 / scenecut=40 / rc_lookahead=36 / rc=crf / mbtree=1 / crf=19.0 / qcomp=0.60 / qpmin=10 / qpmax=51 / qpstep=8 / ip_ratio=1.40 / aq=1:1.00
Encoded date : UTC 2011-09-30 22:57:57
Tagged date : UTC 2011-09-30 22:58:26

Audio
ID : 2
Format : AAC
Format/Info : Advanced Audio Codec
Format profile : LC
Codec ID : 40
Duration : 23mn 59s
Bit rate mode : Variable
Bit rate : 159 Kbps
Maximum bit rate : 198 Kbps
Channel(s) : 2 channels
Channel positions : Front: L R
Sampling rate : 48.0 KHz
Compression mode : Lossy
Stream size : 27.4 MiB (8%)
Language : Japanese
Encoded date : UTC 2011-09-30 22:58:06
Tagged date : UTC 2011-09-30 22:58:26
Эпизоды
01. I Have No Idea Who Goes to Bed
02. Do Something, to Something, to Somewhere
03. The Antimony of Their Temperatures
04. A Mother and a Body Pillow for the Night
05. Even if I Were to Be Cursed
06. Delicate Like a Glass Ball
07. Does Not Appear in the Eyes of the Seer
08. Like a Curse One Cannot Escape
09. Something Eccentric About She Who Returned
10. The Sadist is Nowhere
11. The Insane Believer is Somewhere
12. Transcendents Can Be Anywhere


 

Текущее время: 28-Мар 16:52

Часовой пояс: GMT + 3

[  Execution time: 0.142 sec  |  MySQL: 0.257 sec (181%) in 7 queries  |  Mem: 410.94 KB / 1.23 MB / 906.09 KB  |  Load: 0.4 0.5 0.4  ]