Loading...
Error

Выбор лучшего релиза

Страницы:   Пред.  1, 2, 3, 4, 5, 6, 7, 8, 9, 10  След.

Ответить на тему
 
Автор Сообщение

arfist

Стаж: 9 лет 8 месяцев

Сообщений: 4899

Провайдер: Не определен

Пол: Не определилось

Он-лайн: Нет

Карма: +1.77

™SHERYL уже на ~40% готова >< ее и докачаю

_________________
( ╯°□°)╯
pic
Profile PM

batyrmastyr

Стаж: 10 лет

Сообщений: 6475

Откуда: Sekai

Провайдер: ВТ (IXNN)

Пол: Не определилось

Он-лайн: Нет

Карма: +32.09

post 17-Апр-2011 17:20 (спустя 3 часа)
В продолжение сравнения:
скрытый текст
Yousei
pic

pic

Лео:
pic

pic

Далее,
Шэрил
pic

pic

QTS (за рамки пинайте фёдора, я этот скрин из описания той раздачи утянул)

pic
Промежуточный итог:
1) отличий лео от ёсика в статике и на светлом фоне не наблюдается.
2) линии на лео / qts местами намного более ровные чем у Шэрила, но
3) общая замыленность (сырца?) делает ((пере-)фильтрованную?) картинку Шэрилов фаворитом. По крайней мере моим.
4) в категории "2 гига на серию ака битрейта не жалко" остались Hakubi (возможно, бывшие Muyo) и ещё один аноним, но и те и другие до полного комплекта не добрались.

_________________
pic
я несу глупость во имя бака-тим
Gundam Team
Yuri TEAM
Термины
Profile PM

fedoRRR

Стаж: 9 лет 5 месяцев

Сообщений: 3308

Провайдер: Дом.ru

Пол: Не определилось

Он-лайн: Нет

Карма: +0.03

post 17-Апр-2011 18:30 (спустя 1 час 9 минут)
По скринам:
Шерил - хреновый шарп и низковатый бирейт (судя по грязи в тирах, и по краям)
Лео - лучше шерила, но перебор с мылом (не знаю откуда он его перекладывал шара или PD)
QTS - видимо один из последних приличных рипов (то что делается сейчас скорее для одноразового просмотра, хоть и не с самым плохим качеством)
Ёсики - 2-проходка, вместо 16 црф качество как и QTS

касаемо фильтров - для этого есть софтрверные настройки плеера/монитора, так что смысла в неудачном прошарпливании шерилов/размыливании лео (при изначально "пастэльной" рисовке сорца) никакого

_________________
pic
"В Генсокё автобусы не ходят "
Profile PM

batyrmastyr

Стаж: 10 лет

Сообщений: 6475

Откуда: Sekai

Провайдер: ВТ (IXNN)

Пол: Не определилось

Он-лайн: Нет

Карма: +32.09

post 17-Апр-2011 19:07 (спустя 36 минут)
fedoRRR
на тех скринах что мне удалось сделать разница между Лео и ёсиком хоть и есть, но вот в плане мыльности - почти никакой разницы. //хотя на них нет интересных градиентов.

_________________
pic
я несу глупость во имя бака-тим
Gundam Team
Yuri TEAM
Термины
Profile PM

fedoRRR

Стаж: 9 лет 5 месяцев

Сообщений: 3308

Провайдер: Дом.ru

Пол: Не определилось

Он-лайн: Нет

Карма: +0.03

post 17-Апр-2011 19:48 (спустя 41 минута)
скрины
ёсики
pic

лео
pic

qts
pic
Если вглядываться с лупой (на тёмных местах), то заметно, что у ёсиков чуть лучший енкод, у qts - заметнее бандинг,у лео - грязноватость - но сие не принципиально по большому счёту (никто же не смотрит в "покадровом" режиме), тут лучше смотреть на динамику и выходной вес. Получается, что есики чуть лучше, квантиуса, тот в свою очередь лучше лео если брать качество энкода, если вес то наверное лео победитель ))

_________________
pic
"В Генсокё автобусы не ходят "
Profile PM

batyrmastyr

Стаж: 10 лет

Сообщений: 6475

Откуда: Sekai

Провайдер: ВТ (IXNN)

Пол: Не определилось

Он-лайн: Нет

Карма: +32.09

post 17-Апр-2011 21:08 (спустя 1 час 22 минуты)
гы: 13-я серия. Лео: pic VS Шэрил pic
толи кодер у лео на ходу игрался с настройками кодирования, толи шэрилы решили сменить шарп на мыло. Smile

Добавлено спустя 3 минуты 17 секунд:

правда шэрил, как и в первой серии, проца кушает немного меньше - у меня тормозов совсем не было.

_________________
pic
я несу глупость во имя бака-тим
Gundam Team
Yuri TEAM
Термины
Profile PM

fedoRRR

Стаж: 9 лет 5 месяцев

Сообщений: 3308

Провайдер: Дом.ru

Пол: Не определилось

Он-лайн: Нет

Карма: +0.03

post 18-Апр-2011 12:26 (спустя 15 часов)
batyrmastyr
ттх бы чтоль привёл, а то не совсем понятно кто и как шкодил

_________________
pic
"В Генсокё автобусы не ходят "
Profile PM

batyrmastyr

Стаж: 10 лет

Сообщений: 6475

Откуда: Sekai

Провайдер: ВТ (IXNN)

Пол: Не определилось

Он-лайн: Нет

Карма: +32.09

post 18-Апр-2011 13:02 (спустя 47 минут)
fedoRRR
Первую серию шкодили так, что ты "кровавыми слезами плакать" будешь: crf=22 и crf=23.
шэрил 1-я
General
Complete name : I:\Anime BIG\[™SHERYL-Raws] Isekai no Seikishi Monogatari (BD 1920x1080 x264 AAC)\[™SHERYL-Raws] Isekai no Seikishi Monogatari - 01 (BD 1920x1080 x264 AAC).mp4
Format : MPEG-4
Format profile : Base Media
Codec ID : isom
File size : 1.09 GiB
Duration : 51mn 3s
Overall bit rate : 3 053 Kbps
Encoded date : UTC 2010-02-12 23:50:16
Tagged date : UTC 2010-02-12 23:50:16

Video
ID : 1
Format : AVC
Format/Info : Advanced Video Codec
Format profile : High@L4.1
Format settings, CABAC : Yes
Format settings, ReFrames : 3 frames
Codec ID : avc1
Codec ID/Info : Advanced Video Coding
Duration : 51mn 2s
Bit rate mode : Variable
Bit rate : 2 417 Kbps
Maximum bit rate : 11.5 Mbps
Width : 1 920 pixels
Height : 1 080 pixels
Display aspect ratio : 16:9
Frame rate mode : Constant
Frame rate : 23.976 fps
Resolution : 24 bits
Colorimetry : 4:2:0
Scan type : Progressive
Bits/(Pixel*Frame) : 0.049
Stream size : 882 MiB (79%)
Writing library : x264 core 80 r1376_DANGEROUS
Encoding settings : cabac=1 / ref=3 / deblock=1:-3:-3 / analyse=0x3:0x113 / me=umh / subme=9 / psy=1 / psy_rd=0.4:0.0 / mixed_ref=1 / me_range=32 / chroma_me=1 / trellis=0 / 8x8dct=1 / cqm=0 / deadzone=21,11 / fast_pskip=0 / chroma_qp_offset=-2 / threads=12 / sliced_threads=0 / nr=0 / decimate=0 / mbaff=0 / constrained_intra=0 / fgo=0 / bframes=3 / b_pyramid=0 / b_adapt=2 / b_bias=0 / direct=3 / wpredb=1 / wpredp=2 / keyint=240 / keyint_min=1 / scenecut=75 / rc=crf / mbtree=0 / crf=22.0 / qcomp=0.70 / qpmin=12 / qpmax=32 / qpstep=10 / ip_ratio=1.40 / pb_ratio=1.30 / aq=1 / aq-metric=0 / aq-strength=0.00 / aq-sensitivity=10.00 / aq-ifactor=1.00 / aq-pfactor=1.00 / aq-bfactor=1.00 / aq2=1 / aq2-strength=0.40 / aq2-sensitivity=15.00 / cabac=1 / ref=3 / deblock=1:-3:-3 / analyse=0x3:0x113 / me=umh / subme=9 / psy=1 / psy_rd=0.4:0.0 / mixed_ref=1 / me_range=32 / chroma_me=1 / trellis=0 / 8x8dct=1 / cqm=0 / deadzone=21,11 / fast_pskip=0 / chroma_qp_offset=-2 / threads=12 / sliced_threads=0 / nr=0 / decimate=0 / mbaff=0 / constrained_intra=0 / fgo=0 / bframes=3 / b_pyramid=0 / b_adapt=2 / b_bias=0 / direct=3 / wpredb=1 / wpredp=2 / keyint=240 / keyint_min=1 / scenecut=75 / rc=crf / mbtree=0 / crf=22.0 / qcomp=0.70 / qpmin=12 / qpmax=32 / qpstep=10 / ip_ratio=1.40 / pb_ratio=1.30 / aq=1 / aq-metric=0 / aq-strength=0.00 / aq-sensitivity=10.00 / aq-ifactor=1.00 / aq-pfactor=1.00 / aq-bfactor=1.00 / aq2=1 / aq2-strength=0.40 / aq2-sensitivity=15.00
Encoded date : UTC 2010-02-12 23:50:16
Tagged date : UTC 2010-02-12 23:50:49

Audio #1
ID : 2
Format : AAC
Format/Info : Advanced Audio Codec
Format version : Version 4
Format profile : LC
Format settings, SBR : No
Codec ID : 40
Duration : 51mn 3s
Bit rate mode : Variable
Bit rate : 192 Kbps
Maximum bit rate : 245 Kbps
Channel(s) : 2 channels
Channel positions : L R
Sampling rate : 48.0 KHz
Resolution : 16 bits
Stream size : 70.1 MiB (6%)
Encoded date : UTC 2010-02-12 23:50:42
Tagged date : UTC 2010-02-12 23:50:49

Audio #2
ID : 3
Format : AAC
Format/Info : Advanced Audio Codec
Format version : Version 4
Format profile : LC
Format settings, SBR : No
Codec ID : 40
Duration : 51mn 3s
Bit rate mode : Variable
Bit rate : 254 Kbps
Maximum bit rate : 428 Kbps
Channel(s) : 6 channels
Channel positions : Front: L C R, Rear: L R, LFE
Sampling rate : 48.0 KHz
Resolution : 16 bits
Stream size : 92.8 MiB (8%)
Encoded date : UTC 2010-02-12 23:50:43
Tagged date : UTC 2010-02-12 23:50:49

Audio #3
ID : 4
Format : AAC
Format/Info : Advanced Audio Codec
Format version : Version 4
Format profile : LC
Format settings, SBR : No
Codec ID : 40
Duration : 51mn 3s
Bit rate mode : Variable
Bit rate : 183 Kbps
Maximum bit rate : 238 Kbps
Channel(s) : 2 channels
Channel positions : L R
Sampling rate : 48.0 KHz
Resolution : 16 bits
Stream size : 66.9 MiB (6%)
Encoded date : UTC 2010-02-12 23:50:47
Tagged date : UTC 2010-02-12 23:50:49
шэрил 13-я
General
Complete name : I:\Anime BIG\[™SHERYL-Raws] Isekai no Seikishi Monogatari (BD 1920x1080 x264 AAC)\[™SHERYL-Raws] Isekai no Seikishi Monogatari - 13 (BD 1920x1080 x264 AAC).mp4
Format : MPEG-4
Format profile : Base Media
Codec ID : isom
File size : 1.14 GiB
Duration : 45mn 1s
Overall bit rate : 3 613 Kbps
Encoded date : UTC 2010-05-26 12:13:05
Tagged date : UTC 2010-05-26 12:13:05

Video
ID : 1
Format : AVC
Format/Info : Advanced Video Codec
Format profile : High@L4.1
Format settings, CABAC : Yes
Format settings, ReFrames : 3 frames
Codec ID : avc1
Codec ID/Info : Advanced Video Coding
Duration : 45mn 0s
Bit rate mode : Variable
Bit rate : 2 774 Kbps
Maximum bit rate : 16.0 Mbps
Width : 1 920 pixels
Height : 1 080 pixels
Display aspect ratio : 16:9
Frame rate mode : Variable
Frame rate : 23.976 fps
Minimum frame rate : 23.976 fps
Maximum frame rate : 95.904 fps
Resolution : 24 bits
Colorimetry : 4:2:0
Scan type : Progressive
Bits/(Pixel*Frame) : 0.056
Stream size : 893 MiB (77%)
Writing library : x264 core 80 r1376_DANGEROUS
Encoded date : UTC 2010-05-26 08:29:44
Tagged date : UTC 2010-05-26 12:13:35
colour_primaries : BT.709-5, BT.1361, IEC 61966-2-4, SMPTE RP177
transfer_characteristics : BT.709-5, BT.1361
matrix_coefficients : BT.709-5, BT.1361, IEC 61966-2-4 709, SMPTE RP177

Audio #1
ID : 2
Format : AAC
Format/Info : Advanced Audio Codec
Format version : Version 4
Format profile : LC
Format settings, SBR : No
Codec ID : 40
Duration : 45mn 1s
Bit rate mode : Variable
Bit rate : 192 Kbps
Maximum bit rate : 252 Kbps
Channel(s) : 2 channels
Channel positions : L R
Sampling rate : 48.0 KHz
Resolution : 16 bits
Stream size : 61.8 MiB (5%)
Encoded date : UTC 2010-05-26 12:13:28
Tagged date : UTC 2010-05-26 12:13:35

Audio #2
ID : 3
Format : AAC
Format/Info : Advanced Audio Codec
Format version : Version 4
Format profile : LC
Format settings, SBR : No
Codec ID : 40
Duration : 45mn 1s
Bit rate mode : Variable
Bit rate : 255 Kbps
Maximum bit rate : 402 Kbps
Channel(s) : 6 channels
Channel positions : Front: L C R, Rear: L R, LFE
Sampling rate : 48.0 KHz
Resolution : 16 bits
Stream size : 82.0 MiB (7%)
Encoded date : UTC 2010-05-26 12:13:29
Tagged date : UTC 2010-05-26 12:13:35

Audio #3
ID : 4
Format : AAC
Format/Info : Advanced Audio Codec
Format version : Version 4
Format profile : LC
Format settings, SBR : No
Codec ID : 40
Duration : 45mn 1s
Bit rate mode : Variable
Bit rate : 192 Kbps
Maximum bit rate : 219 Kbps
Channel(s) : 2 channels
Channel positions : L R
Sampling rate : 48.0 KHz
Resolution : 16 bits
Stream size : 61.8 MiB (5%)
Encoded date : UTC 2010-05-26 12:13:30
Tagged date : UTC 2010-05-26 12:13:35

Audio #4
ID : 5
Format : AAC
Format/Info : Advanced Audio Codec
Format version : Version 4
Format profile : LC
Format settings, SBR : No
Codec ID : 40
Duration : 45mn 1s
Bit rate mode : Variable
Bit rate : 192 Kbps
Maximum bit rate : 238 Kbps
Channel(s) : 2 channels
Channel positions : L R
Sampling rate : 48.0 KHz
Resolution : 16 bits
Stream size : 61.7 MiB (5%)
Encoded date : UTC 2010-05-26 12:13:34
Tagged date : UTC 2010-05-26 12:13:35
Лео 1-я
General
Complete name : J:\Anime\Isekai no Seikishi Monogatari\[Leopard-Raws] Isekai no Seikishi Monogatari - 01 (BD 1920x1080 H264 AAC).mp4
Format : MPEG-4
Format profile : Base Media
Codec ID : isom
File size : 834 MiB
Duration : 51mn 3s
Overall bit rate : 2 283 Kbps
Encoded date : UTC 2009-07-02 09:53:37
Tagged date : UTC 2009-07-03 10:42:47
Writing application : Yamb 2.1.0.0 [http://yamb.unite-video.com]
Comment : [変更内容] / / 1:x264の設定を若干変更 / (ある程度縮みました。画質的には多分以前と比べて / 体感出来るほどの劣化はないと思います。あったらごめんなさい Wink / / 2:本編音声5.1ch追加してます。 / (2ch、5.1chお好きな方でどうぞ) / / ※ 設定詰めればもっと縮むと思いますが、精神衛生上 / このあたりの設定が無難かなと、思います。(個人的にですが・・) / 5.1ch増やしたので、ファイル総容量が以前よりも膨れ上がっ / てますがご了承くださいませ。

Video
ID : 1
Format : AVC
Format/Info : Advanced Video Codec
Format profile : High@L4.1
Format settings, CABAC : Yes
Format settings, ReFrames : 3 frames
Codec ID : avc1
Codec ID/Info : Advanced Video Coding
Duration : 51mn 2s
Bit rate mode : Variable
Bit rate : 1 629 Kbps
Maximum bit rate : 9 762 Kbps
Width : 1 920 pixels
Height : 1 080 pixels
Display aspect ratio : 16:9
Frame rate mode : Constant
Frame rate : 23.976 fps
Resolution : 24 bits
Colorimetry : 4:2:0
Scan type : Progressive
Bits/(Pixel*Frame) : 0.033
Stream size : 595 MiB (71%)
Writing library : x264 core 67
Encoding settings : cabac=1 / ref=3 / deblock=1:-1:-1 / analyse=0x3:0x113 / me=umh / me-prepass=0 / subme=9 / psy_rd=0.6:0.0 / mixed_ref=1 / me_range=32 / chroma_me=1 / trellis=2 / 8x8dct=1 / cqm=1 / deadzone=21,11 / chroma_qp_offset=-2 / threads=6 / thread_queue=6 / nr=0 / decimate=0 / mbaff=0 / bframes=4 / b_pyramid=0 / b_adapt=2 / b_bias=0 / direct=3 / wpredb=1 / keyint=250 / keyint_min=1 / scenecut=75 / rc=crf / crf=23.0 / qcomp=0.60 / qpmin=15 / qpmax=25 / qpstep=8 / ip_ratio=1.40 / pb_ratio=1.30 / aq=1 / aq-strength=0.50:0.50:0.50:0.50:0.50:0.50:0.50 / aq-sensitivity=10.00 / aq-ifactor=1.00:1.00 / aq-pfactor=1.00:1.00 / aq-bfactor=1.00:1.00 / aq-metric=0 / aq-boundary=192:64:24 / cabac=1 / ref=3 / deblock=1:-1:-1 / analyse=0x3:0x113 / me=umh / me-prepass=0 / subme=9 / psy_rd=0.6:0.0 / mixed_ref=1 / me_range=32 / chroma_me=1 / trellis=2 / 8x8dct=1 / cqm=1 / deadzone=21,11 / chroma_qp_offset=-2 / threads=6 / thread_queue=6 / nr=0 / decimate=0 / mbaff=0 / bframes=4 / b_pyramid=0 / b_adapt=2 / b_bias=0 / direct=3 / wpredb=1 / keyint=250 / keyint_min=1 / scenecut=75 / rc=crf / crf=23.0 / qcomp=0.60 / qpmin=15 / qpmax=25 / qpstep=8 / ip_ratio=1.40 / pb_ratio=1.30 / aq=1 / aq-strength=0.50:0.50:0.50:0.50:0.50:0.50:0.50 / aq-sensitivity=10.00 / aq-ifactor=1.00:1.00 / aq-pfactor=1.00:1.00 / aq-bfactor=1.00:1.00 / aq-metric=0 / aq-boundary=192:64:24
Encoded date : UTC 2009-07-01 23:03:59
Tagged date : UTC 2009-07-02 09:53:56

Audio #1
ID : 2
Format : AAC
Format/Info : Advanced Audio Codec
Format version : Version 4
Format profile : LC
Format settings, SBR : No
Codec ID : 40
Duration : 51mn 3s
Bit rate mode : Variable
Bit rate : 192 Kbps
Maximum bit rate : 197 Kbps
Channel(s) : 2 channels
Channel positions : L R
Sampling rate : 48.0 KHz
Resolution : 16 bits
Stream size : 70.1 MiB (8%)
Title : Original_2ch
Language : Japanese
Encoded date : UTC 2009-07-02 09:53:47
Tagged date : UTC 2009-07-02 09:53:56

Audio #2
ID : 3
Format : AAC
Format/Info : Advanced Audio Codec
Format version : Version 4
Format profile : LC
Format settings, SBR : No
Codec ID : 40
Duration : 51mn 3s
Bit rate mode : Variable
Bit rate : 256 Kbps
Maximum bit rate : 271 Kbps
Channel(s) : 6 channels
Channel positions : Front: L C R, Rear: L R, LFE
Sampling rate : 48.0 KHz
Resolution : 16 bits
Stream size : 93.3 MiB (11%)
Title : Original_5.1ch
Language : Japanese
Encoded date : UTC 2009-07-02 09:53:54
Tagged date : UTC 2009-07-02 09:53:56

Audio #3
ID : 4
Format : AAC
Format/Info : Advanced Audio Codec
Format version : Version 4
Format profile : LC
Format settings, SBR : No
Codec ID : 40
Duration : 51mn 3s
Bit rate mode : Variable
Bit rate : 192 Kbps
Maximum bit rate : 195 Kbps
Channel(s) : 2 channels
Channel positions : L R
Sampling rate : 48.0 KHz
Resolution : 16 bits
Stream size : 70.1 MiB (8%)
Title : Commentary
Language : Japanese
Encoded date : UTC 2009-07-02 09:53:56
Tagged date : UTC 2009-07-02 09:53:56

Menu
00:00:00.000 : ѓIЃ[ѓvѓjѓ“ѓO
00:01:30.006 : ѓAѓoѓ“ѓ^ѓCѓgѓ‹
00:05:02.677 : AѓpЃ[ѓg
00:09:59.056 : BѓpЃ[ѓg
00:13:56.001 : CѓpЃ[ѓg
00:16:41.542 : DѓpЃ[ѓg
00:19:28.292 : EѓpЃ[ѓg
00:25:04.419 : FѓpЃ[ѓg
00:26:47.022 : GѓpЃ[ѓg
00:29:31.311 : HѓpЃ[ѓg
00:30:35.792 : IѓpЃ[ѓg
00:38:51.996 : JѓpЃ[ѓg
00:46:40.464 : KѓpЃ[ѓg
00:49:17.037 : ѓGѓ“ѓfѓBѓ“ѓO
00:50:47.044 : Ћџ‰с—\Ќђ
Лео 13-я
General
Complete name : J:\Anime\Isekai no Seikishi Monogatari\[Leopard-Raws] Isekai no Seikishi Monogatari - 13 END (BD 1920x1080 H264 AAC).mp4
Format : MPEG-4
Format profile : Base Media
Codec ID : isom
File size : 1.34 GiB
Duration : 45mn 1s
Overall bit rate : 4 249 Kbps
Encoded date : UTC 2010-05-26 09:48:15
Tagged date : UTC 2010-05-26 09:48:15
Writing application : Yamb 2.1.0.0 [http://yamb.unite-video.com]

Video
ID : 1
Format : AVC
Format/Info : Advanced Video Codec
Format profile : High@L4.1
Format settings, CABAC : Yes
Format settings, ReFrames : 3 frames
Codec ID : avc1
Codec ID/Info : Advanced Video Coding
Duration : 45mn 1s
Bit rate mode : Variable
Bit rate : 3 203 Kbps
Maximum bit rate : 16.9 Mbps
Width : 1 920 pixels
Height : 1 080 pixels
Display aspect ratio : 16:9
Frame rate mode : Constant
Frame rate : 23.976 fps
Resolution : 24 bits
Colorimetry : 4:2:0
Scan type : Progressive
Bits/(Pixel*Frame) : 0.064
Stream size : 1.01 GiB (75%)
Writing library : x264 core 95 [Rev.1592M_r1 Core2P-SSE4.1]x86(No lavf/ffms)
Encoding settings : cabac=1 / ref=4 / deblock=1:-1:-1 / analyse=0x3:0x113 / me=umh / subme=10 / psy=1 / psy_rd=1.15:0.70 / mixed_ref=1 / me_range=32 / chroma_me=1 / trellis=2 / 8x8dct=1 / cqm=0 / deadzone=21,11 / fast_pskip=1 / chroma_qp_offset=-4 / threads=6 / sliced_threads=0 / nr=0 / decimate=0 / interlaced=0 / constrained_intra=0 / fgo=0 / bframes=3 / b_pyramid=1 / b_adapt=2 / b_bias=0 / direct=3 / weightb=1 / weightp=0 / keyint=92 / keyint_min=2 / scenecut=75 / intra_refresh=0 / rc_lookahead=40 / rc=crf / mbtree=1 / crf=20.0 / qcomp=0.60 / qpmin=5 / qpmax=25 / qpstep=8 / vbv_maxrate=40000 / vbv_bufsize=30000 / crf_max=0.0 / ip_ratio=1.40 / aq=1:1.05 / nal_hrd=vbr
Encoded date : UTC 2010-05-25 23:49:46
Tagged date : UTC 2010-05-26 09:48:36
colour_primaries : BT.709-5, BT.1361, IEC 61966-2-4, SMPTE RP177
transfer_characteristics : BT.709-5, BT.1361
matrix_coefficients : BT.709-5, BT.1361, IEC 61966-2-4 709, SMPTE RP177

Audio #1
ID : 2
Format : AAC
Format/Info : Advanced Audio Codec
Format version : Version 4
Format profile : LC
Format settings, SBR : No
Codec ID : 40
Duration : 45mn 1s
Bit rate mode : Variable
Bit rate : 258 Kbps
Maximum bit rate : 335 Kbps
Channel(s) : 2 channels
Channel positions : L R
Sampling rate : 48.0 KHz
Resolution : 16 bits
Stream size : 83.2 MiB (6%)
Title : original_2ch
Language : Japanese
Encoded date : UTC 2010-05-26 09:48:29
Tagged date : UTC 2010-05-26 09:48:36

Audio #2
ID : 3
Format : AAC
Format/Info : Advanced Audio Codec
Format version : Version 4
Format profile : LC
Format settings, SBR : No
Codec ID : 40
Duration : 45mn 1s
Bit rate mode : Variable
Bit rate : 264.6 Kbps
Maximum bit rate : 398 Kbps
Channel(s) : 6 channels
Channel positions : Front: L C R, Rear: L R, LFE
Sampling rate : 48.0 KHz
Resolution : 16 bits
Stream size : 84.3 MiB (6%)
Title : original_5.1ch
Language : Japanese
Encoded date : UTC 2010-05-26 09:48:32
Tagged date : UTC 2010-05-26 09:48:36

Audio #3
ID : 4
Format : AAC
Format/Info : Advanced Audio Codec
Format version : Version 4
Format profile : LC
Format settings, SBR : No
Codec ID : 40
Duration : 45mn 1s
Bit rate mode : Variable
Bit rate : 259 Kbps
Maximum bit rate : 294 Kbps
Channel(s) : 2 channels
Channel positions : L R
Sampling rate : 48.0 KHz
Resolution : 16 bits
Stream size : 83.3 MiB (6%)
Title : Commentary-1
Language : Japanese
Encoded date : UTC 2010-05-26 09:48:33
Tagged date : UTC 2010-05-26 09:48:36

Audio #4
ID : 5
Format : AAC
Format/Info : Advanced Audio Codec
Format version : Version 4
Format profile : LC
Format settings, SBR : No
Codec ID : 40
Duration : 45mn 1s
Bit rate mode : Variable
Bit rate : 258 Kbps
Maximum bit rate : 298 Kbps
Channel(s) : 2 channels
Channel positions : L R
Sampling rate : 48.0 KHz
Resolution : 16 bits
Stream size : 83.1 MiB (6%)
Title : Commentary-2
Language : Japanese
Encoded date : UTC 2010-05-26 09:48:35
Tagged date : UTC 2010-05-26 09:48:36

Menu
00:00:00.000 : ѓIЃ[ѓvѓjѓ“ѓO
00:01:30.006 : ѓAѓoѓ“ѓ^ѓCѓgѓ‹
00:05:46.721 : AѓpЃ[ѓg
00:08:17.079 : BѓpЃ[ѓg
00:12:22.992 : CѓpЃ[ѓg
00:17:26.336 : DѓpЃ[ѓg
00:19:48.979 : EѓpЃ[ѓg
00:22:30.015 : FѓpЃ[ѓg
00:26:58.533 : GѓpЃ[ѓg
00:29:06.286 : HѓpЃ[ѓg
00:32:45.046 : IѓpЃ[ѓg
00:35:19.075 : JѓpЃ[ѓg
00:42:24.542 : KѓpЃ[ѓg
00:43:30.024 : ѓGѓ“ѓfѓBѓ“ѓO
Добавлено спустя 11 минут 18 секунд:

зы 13-я от шэрилов удивляет тем, что даже последняя версия mediainfo ничего не может сказать о настройках сжатия. Параметры 2-й серии аналогичны параметрам 1-й.

У лео - жосткая солянка из crf=23 (1-3 серии) и crf=19-20 в остальных. Состав прочих параметров от серии к серии кардинально меняется (6 видов, как минимум).

_________________
pic
я несу глупость во имя бака-тим
Gundam Team
Yuri TEAM
Термины
Profile PM

fedoRRR

Стаж: 9 лет 5 месяцев

Сообщений: 3308

Провайдер: Дом.ru

Пол: Не определилось

Он-лайн: Нет

Карма: +0.03

post 18-Апр-2011 15:15 (спустя 2 часа 1 минута)
ну в общем понятно откуда рожки росли, грязь и пр... шерил всё кодили на x264 core 80, а кодер лео начинал на 67-м, к 13-й уже 95-е ядро (библиотек x264), параметры сжатия можно попробовать узнать прогнав через mkvtool - после создания матрёшки оно выдаст ттх (у меня по крайней мере так получалось выбить инфу из глючно-упакованных версий матрёшек 4.0.0 и mp4)
ну и deblock=1:-3:-3 у шерилов даёт худшую обработку при кодировании/декодировании

_________________
pic
"В Генсокё автобусы не ходят "
Profile PM

batyrmastyr

Стаж: 10 лет

Сообщений: 6475

Откуда: Sekai

Провайдер: ВТ (IXNN)

Пол: Не определилось

Он-лайн: Нет

Карма: +32.09

post 18-Апр-2011 16:56 (спустя 1 час 40 минут)
fedoRRR
Увы, но 13-я шерилов даже после перепаковки в 4.4.0 и 4.6.0 никакой доп. инфы не выдала. Впрочем, у шерилов уже 2-я серия заметно хуже первой, точнее, не имеет никаких преимуществ перед леопардовой, кроме меньшей нагрузки на проц.
скрытый текст
Шэрил 1-я
pic
Шэрил 2-я
pic
Леопард, 2-я
pic
В общем, ну их нафиг Cool

_________________
pic
я несу глупость во имя бака-тим
Gundam Team
Yuri TEAM
Термины
Profile PM

fedoRRR

Стаж: 9 лет 5 месяцев

Сообщений: 3308

Провайдер: Дом.ru

Пол: Не определилось

Он-лайн: Нет

Карма: +0.03

post 19-Апр-2011 00:15 (спустя 7 часов)
ну может постарались вычистить ручками (чтоб народ не ужОсалсо), в любом разе если в даун гнать не с сорца, то с ёсика, а если места жаль и проца пощадить - оставить солянку от лео

_________________
pic
"В Генсокё автобусы не ходят "
Profile PM

arfist

Стаж: 9 лет 8 месяцев

Сообщений: 4899

Провайдер: Не определен

Пол: Не определилось

Он-лайн: Нет

Карма: +1.77

post 09-Фев-2012 20:28 (спустя 9 месяцев 20 дней)
авось пригодится кому

Cowboy Bebop - [niizk] vs [Kagura] vs noname from rutraker
http://screenshotcomparison.com/comparison/107032/picture:0
http://screenshotcomparison.com/comparison/107033/picture:0

_________________
( ╯°□°)╯
pic
Profile PM

Nexuss

Стаж: 9 лет

Сообщений: 6078

Откуда: Grand Line ____

Провайдер: МТС Домашний (IXNN)

Пол: Otoko (M)

Он-лайн: Нет

Карма: +1.11

post 09-Фев-2012 21:42 (спустя 1 час 12 минут)

arfist писал(а):

Cowboy Bebop - [niizk] vs [Kagura] vs noname from rutraker
Ну если только третий.)

_________________
Hate me. ^^ FUNimation shitscale fan! :DDD
Profile PM

arfist

Стаж: 9 лет 8 месяцев

Сообщений: 4899

Провайдер: Не определен

Пол: Не определилось

Он-лайн: Нет

Карма: +1.77

post 09-Фев-2012 21:45 (спустя 3 минуты)
Nexuss
intoxicate

зы: все 3 ужасны

_________________
( ╯°□°)╯
pic
Profile PM

Nexuss

Стаж: 9 лет

Сообщений: 6078

Откуда: Grand Line ____

Провайдер: МТС Домашний (IXNN)

Пол: Otoko (M)

Он-лайн: Нет

Карма: +1.11

post 09-Фев-2012 22:01 (спустя 15 минут)
Просто 2 тут наиболее ужасен, 1 и 3 поприличнее)

_________________
Hate me. ^^ FUNimation shitscale fan! :DDD
Profile PM

arfist

Стаж: 9 лет 8 месяцев

Сообщений: 4899

Провайдер: Не определен

Пол: Не определилось

Он-лайн: Нет

Карма: +1.77

post 09-Фев-2012 22:29 (спустя 31 минута)
все так, но с точностью до наоборот =)

[niizk] - грязь, ореолы, блочность
noname - еще более заметные ореолы, зерном убиты мелкие и не очень мелкие детали, грязь
[Kagura] - нет грязи, нет ореолов, но картинка слегка замылена (как результат удаления ореолов)

в динамике, растянув на весь экран, смотреть более-менее приятно только на [Kagura]

вообще хочется рип Бибопа уровня рипа Евы от Салендера (с нормальным зерном и битрейтом)
мячты-мячты Smile

_________________
( ╯°□°)╯
pic
Profile PM

fedoRRR

Стаж: 9 лет 5 месяцев

Сообщений: 3308

Провайдер: Дом.ru

Пол: Не определилось

Он-лайн: Нет

Карма: +0.03

post 09-Фев-2012 22:40 (спустя 8 минут)

arfist писал(а):

зы: все 3 ужасны
согласен, однако:
1-й перемылен, 3-й перешарплен, 2=3+1 - нечто сореднее, бандинг можно удалить дебандом

Nexuss
выкрути контрастность на мониторе или отшарпай фильтром кагуру
http://habrahabr.ru/blogs/image_processing/136853/#habracut - о чудесах шарпа, как оно получается (советую также почитать каменты)

о пикселефажестве: "аниме дефолтно ап из 720р" (tp7) | обычный тест: взять сорц, труЪ рип, что-то из мэйнстрима, и кетайский нонаме --‍>‍ посмотреть с расстояния 0,5М на хорошем мониторе/плазме --‍>‍ посмотреть тоже самое с рекомендуемого для просмотра расстояния овер 2,5М --‍>‍ подумать об увиденном

зерно=высокий битрейт

_________________
pic
"В Генсокё автобусы не ходят "
Profile PM

arfist

Стаж: 9 лет 8 месяцев

Сообщений: 4899

Провайдер: Не определен

Пол: Не определилось

Он-лайн: Нет

Карма: +1.77

post 04-Фев-2014 09:17 (спустя 1 год 11 месяцев)
чей рип Торадоры качать ? бд или двд ?

_________________
( ╯°□°)╯
pic
Profile PM

batyrmastyr

Стаж: 10 лет

Сообщений: 6475

Откуда: Sekai

Провайдер: ВТ (IXNN)

Пол: Не определилось

Он-лайн: Нет

Карма: +32.09

post 04-Фев-2014 11:57 (спустя 2 часа 40 минут)

arfist писал(а):

бд или двд ?
Даже не глядя скажу.

_________________
pic
я несу глупость во имя бака-тим
Gundam Team
Yuri TEAM
Термины
Profile PM

fedoRRR

Стаж: 9 лет 5 месяцев

Сообщений: 3308

Провайдер: Дом.ru

Пол: Не определилось

Он-лайн: Нет

Карма: +0.03

post 04-Фев-2014 14:43 (спустя 2 часа 46 минут)
arfist
БД - апнутое двд, от сони пцл (хотя и лучше кутека), если смотреть на мобильных девайсах и трубошных телеках до 20" - то дывыд лучче, в остальных случаях апнутое БД побеждает //овашка вообще "тру" БД (насколько у стаффов БД вообще бывает труЪ)

_________________
pic
"В Генсокё автобусы не ходят "
Profile PM

Nexuss

Стаж: 9 лет

Сообщений: 6078

Откуда: Grand Line ____

Провайдер: МТС Домашний (IXNN)

Пол: Otoko (M)

Он-лайн: Нет

Карма: +1.11

post 04-Фев-2014 16:51 (спустя 2 часа 7 минут)
arfist
Пока Агленн доделывает бдрип вполне себе обхожусь двдшным вариантом Хеншина, других качать смысла не увидел)

_________________
Hate me. ^^ FUNimation shitscale fan! :DDD
Profile PM

arfist

Стаж: 9 лет 8 месяцев

Сообщений: 4899

Провайдер: Не определен

Пол: Не определилось

Он-лайн: Нет

Карма: +1.77

post 04-Фев-2014 18:56 (спустя 2 часа 5 минут)
batyrmastyr
"следи за собой, будь осторожен" (с)
а то так можно и на бдрип Шаны напороться )

стянул бдшку

_________________
( ╯°□°)╯
pic
Profile PM

batyrmastyr

Стаж: 10 лет

Сообщений: 6475

Откуда: Sekai

Провайдер: ВТ (IXNN)

Пол: Не определилось

Он-лайн: Нет

Карма: +32.09

post 04-Фев-2014 20:29 (спустя 1 час 32 минуты)

arfist писал(а):

а то так можно и на бдрип Шаны напороться )
Если люди не совсем упоролись, даже имея исходники под DVD, они станут растягивать в БД их, а не магазинный DVD с телекино и чересстрочностью )
Другое дело, что некоторые рипперы выдают DVDrip за BDrip (

_________________
pic
я несу глупость во имя бака-тим
Gundam Team
Yuri TEAM
Термины
Profile PM

fedoRRR

Стаж: 9 лет 5 месяцев

Сообщений: 3308

Провайдер: Дом.ru

Пол: Не определилось

Он-лайн: Нет

Карма: +0.03

post 04-Фев-2014 20:54 (спустя 25 минут)
Nexuss
у Аглена лучше, насколько это возможно для этого сорца (который меня в своё время разочаровал, хотя Огнеглазка сильнее - там двд победило благодаря вырвиглазному кутеку)

_________________
pic
"В Генсокё автобусы не ходят "
Profile PM

Nexuss

Стаж: 9 лет

Сообщений: 6078

Откуда: Grand Line ____

Провайдер: МТС Домашний (IXNN)

Пол: Otoko (M)

Он-лайн: Нет

Карма: +1.11

post 04-Фев-2014 21:11 (спустя 18 минут)
batyrmastyr
Выжать все соки из ДВД я думаю всё таки попроще, чем сделать что-то удобоваримое из неудачного БД, другое дело, что на многие вещи вообще нет нормальных двдрипов под современные мониторы(

Повсюду снуёт недостаточный битрейт, который некоторые консерваторы по весу считают излишним, это видимо киношники, мол что такого в вашем аниме битрейтить вообще. ==

_________________
Hate me. ^^ FUNimation shitscale fan! :DDD
Profile PM
Показать сообщения:    
Ответить на тему

Текущее время: 20-Июн 08:38

Часовой пояс: GMT + 3



Вы не можете начинать темы
Вы не можете отвечать на сообщения
Вы не можете редактировать свои сообщения
Вы не можете удалять свои сообщения
Вы не можете голосовать в опросах
Вы не можете прикреплять файлы к сообщениям
Вы не можете скачивать файлы
[  Execution time: 0.174 sec  |  MySQL: 0.041 sec (24%) in 13 queries  |  Mem: 160.45 KB / 1.21 MB / 1017 KB  |  Load: 2.1 2.1 1.9  ]