Loading...
Error

Megachu! The Animation | Oh My Sex Goddess | Моя Секс Богиня [2007-2008, 18 Restricted, Angels, Erotic Game, Nudity, Romance, Sex] [DVDrip, 480p, без хардсаба] [JPN, ансаб] (3)

Ответить на тему
Показать список качающих/скачавших
Размер: 929 MB
Зарегистрирован: 8 лет 6 месяцев
Скачан: 147 раз

Сидов:

Имя UL
Ratio
Передано Скорость Провайдер
up down up down
Гость 0 - - - - Неизвестен
показаны данные только за текущую сессию
 
     
 
 
Автор Сообщение

Nexuss

Стаж: 11 лет

Сообщений: 6079

Откуда: Grand Line ____

Провайдер: МТС Домашний (IXNN)

Пол: Otoko (M)

Он-лайн: Нет

Карма: +1.12

Megachu! The Animation
Oh My Sex Goddess
Моя Секс Богиня
めがちゅ! The Animation
pic
Жанры: 18 Restricted, Angels, Erotic Game, Nudity, Romance, Sex
Длительность: 3 эп., ~35 мин.
Производство: Япония
Время выхода: c 25.07.2007 по 25.01.2008

Режиссер: Ёситэн
Снято по: эроге Megachu!
Студия: Milky

Описание:
* Based on an adult game by Front Wing.

Kousuke is an everyday nice-guy college kid who suffers from a reoccurring nightmare where he's a rampaging sex demon. He just can't figure out why that is, as he sits down to play his favorite video games like Magical Girl Lape-chan. One day a beautiful Goddess named Jordh appears before him, not to grant wishes, but to destroy him! It seems Kousuke has the power of an evil demon sleeping inside of him. Luckily, Jordh decides on an alternate means of stopping the demon, which involves lots of sex with her and sexy older sister (and love potion maker) Fauna. Unluckily, there's Kuroto, a little devil with plans of her own for Kousuke.


В энциклопедияхWorld Art  |  AniDB

Качество: DVDrip
Видео: H264|AVC, 720×480 (анаморфное 640×480), 1068 Кбит|с
Аудио: Японский | AC3, стерео, 192 Кбит|с

Наличие хардсаба: нет
Наличие цензуры: нет (убрана)
Перевод: ансаб

Источник релиза: [Senti]


Скриншоты
pic pic pic
pic pic pic
pic pic pic
pic pic pic
pic pic pic
pic pic pic
pic pic pic
Параметры видео | аудио
Общее
Уникальный идентификатор : 189561862019501528283355776317782325015 (0x8E9C496116DFC93090C6F57113757717)
Полное имя : E:\Megachu\[Senti] Megachu - 01 [369891B5].mkv
Формат : Matroska
Размер файла : 304 Мбайт
Продолжительность : 33 м.
Общий поток : 1286 Кбит/сек
Дата кодирования : UTC 2011-02-09 09:47:59
Программа кодирования : mkvmerge v4.5.0 ('Speed of Light') built on Feb 1 2011 02:10:32
Библиотека кодирования : libebml v1.2.0 + libmatroska v1.1.0

Видео
Идентификатор : 1
Формат : AVC
Формат/Информация : Advanced Video Codec
Профиль формата : High@L4.0
Параметр CABAC формата : Да
Параметр ReFrames формата : 16 кадры
Параметры GOP формата : M=1, N=2
Режим смешивания : Header stripping
Идентификатор кодека : V_MPEG4/ISO/AVC
Продолжительность : 33 м.
Битрейт : 1068 Кбит/сек
Ширина : 720 пикс.
Высота : 480 пикс.
Соотношение сторон : 4:3
Частота кадров : 23,976 кадр/сек
Стандарт вещания : NTSC
Цветовое пространство : YUV
Подвыборка цветности : 4:2:0
Битовая глубина : 8 бит
Тип развёртки : Прогрессивная
Бит/(Пиксели*Кадры) : 0.129
Размер потока : 252 Мбайт (83%)
Библиотека кодирования : x264 core 114 r1900 60ef1f8
Настройки программы : cabac=1 / ref=16 / deblock=1:0:0 / analyse=0x3:0x133 / me=tesa / subme=10 / psy=1 / psy_rd=0.40:0.00 / mixed_ref=1 / me_range=24 / chroma_me=1 / trellis=2 / 8x8dct=1 / cqm=0 / deadzone=21,11 / fast_pskip=0 / chroma_qp_offset=-2 / threads=12 / sliced_threads=0 / nr=0 / decimate=1 / interlaced=0 / constrained_intra=0 / bframes=16 / b_pyramid=2 / b_adapt=2 / b_bias=0 / direct=1 / weightb=1 / open_gop=0 / weightp=2 / keyint=250 / keyint_min=23 / scenecut=40 / intra_refresh=0 / rc_lookahead=60 / rc=crf / mbtree=1 / crf=13.0 / qcomp=0.60 / qpmin=0 / qpmax=69 / qpstep=4 / ip_ratio=1.40 / aq=1:0.60

Аудио
Идентификатор : 2
Формат : AC-3
Формат/Информация : Audio Coding 3
Расширение режима : CM (complete main)
Режим смешивания : Header stripping
Идентификатор кодека : A_AC3
Продолжительность : 33 м.
Вид битрейта : Постоянный
Битрейт : 192 Кбит/сек
Канал(ы) : 2 канала(ов)
Расположение каналов : Front: L R
Частота : 48,0 КГц
Битовая глубина : 16 бит
Метод сжатия : С потерями
Размер потока : 45,4 Мбайт (15%)
Язык : Japanese

Текст
Идентификатор : 3
Формат : UTF-8
Идентификатор кодека : S_TEXT/UTF8
Идентификатор кодека/Информация : UTF-8 Plain Text
Язык : English

Внимание! Вы не авторизировались - скачанный по ссылкам ниже торрент не будет учитываться в вашем личном профиле.

Megachu! The Animation (DVDrip) [Senti].torrent
Трекер: Зарегистрирован

Торрент

Зарегистрирован: 2011-02-24 21:01
Скачан: 147 раз
Размер: 929 MB
Оценка: 4.9 (Голосов: 8)
Поблагодарили: 9   (список)
 
Список файлов
# \ Папка Megachu! The Animation (DVDrip) [Senti] Размер
1 [Senti] Megachu - 01 [369891B5].mkv 304 MB
2 [Senti] Megachu - 02 [11F90209].mkv 304 MB
3 [Senti] Megachu - 03 [3876A146].mkv 321 MB

_________________
Hate me. ^^ FUNimation shitscale fan! :DDD
Profile PM

VAKI

Стаж: 10 лет

Сообщений: 575

Откуда: Богородск

Провайдер: ВТ (IXNN)

Пол: Не определилось

Он-лайн: Нет

Карма: 0.00

post 24-Фев-2011 21:13 (спустя 12 минут)
Некс зарелизил хентай? pic

Добавлено спустя 19 секунд:

Качнуть штоле?
Profile PM

Journeyman

Стаж: 11 лет

Сообщений: 3111

Откуда: НиНо, Центр

Провайдер: ВТ (IXNN)

Пол: Onna (Ж)

Он-лайн: Нет

Карма: 0.00

post 24-Фев-2011 22:06 (спустя 52 минуты)
Да ну, скучища pic
Profile PM
Показать сообщения:    
Ответить на тему

Текущее время: 17-Сен 22:35

Часовой пояс: GMT + 3



Вы не можете начинать темы
Вы не можете отвечать на сообщения
Вы не можете редактировать свои сообщения
Вы не можете удалять свои сообщения
Вы не можете голосовать в опросах
Вы не можете прикреплять файлы к сообщениям
Вы можете скачивать файлы
[  Execution time: 0.872 sec  |  MySQL: 1.649 sec (189%) in 21 queries  |  Mem: 410.7 KB / 1.48 MB / 1.06 MB  |  Load: 0.4 0.5 0.7  ]